<?xml version="1.0" standalone="no"?>
<!DOCTYPE svg PUBLIC "-//W3C//DTD SVG 1.1//EN" "http://www.w3.org/Graphics/SVG/1.1/DTD/svg11.dtd" >
<svg>
<metadata>
Created by FontForge 20090914 at Wed Jul 25 08:50:50 2012
 By www-data
Copyright 1990-1998 Bitstream Inc.  All rights reserved.
</metadata>
<defs>
<font id="Swiss721BT-Thin" horiz-adv-x="1067" >
  <font-face 
    font-family="Swis721 Th BT"
    font-weight="400"
    font-stretch="normal"
    units-per-em="2048"
    panose-1="2 11 3 3 2 2 2 2 2 4"
    ascent="1556"
    descent="-492"
    x-height="1063"
    cap-height="1473"
    bbox="-115 -483 2091 1972"
    underline-thickness="43"
    underline-position="-190"
    unicode-range="U+0020-U+E000"
  />
<missing-glyph horiz-adv-x="2048" 
 />
    <glyph glyph-name=".notdef" horiz-adv-x="2048" 
 />
    <glyph glyph-name="space" unicode=" " horiz-adv-x="532" 
 />
    <glyph glyph-name="exclam" unicode="!" horiz-adv-x="629" 
d="M274 1470h76l-8 -1103h-49zM283 0v180h69v-180h-69z" />
    <glyph glyph-name="quotedbl" unicode="&#x22;" horiz-adv-x="530" 
d="M102 881v553h70v-553h-70zM358 881v553h70v-553h-70z" />
    <glyph glyph-name="numbersign" unicode="#" horiz-adv-x="1575" 
d="M143 506l23 74h342l106 290h-372l22 74h375l180 508h96l-180 -508h275l180 508h94l-178 -508h326l-23 -74h-332l-102 -290h356l-22 -74h-359l-178 -504h-96l180 504h-276l-181 -504h-94l178 504h-340zM608 580h273l100 290h-272z" />
    <glyph glyph-name="dollar" unicode="$" 
d="M90 418v5.99805h65c2.66699 -114.667 32.334 -204.167 89.001 -268.5s140 -103.166 250 -116.499v655c-127.333 33.333 -220.333 81 -279 143s-88 143.333 -88 244c0 108.667 33.167 195.667 99.5 261s155.5 98 267.5 98v92h61v-92
c124 -2.66699 219.167 -34.334 285.5 -95.001s100.166 -147 101.499 -259l-59 -1c-7.33301 96.667 -38 169.334 -92 218.001s-130.667 73 -230 73h-6v-626c141.333 -24.667 247 -69 317 -133s105 -148 105 -252c0 -119.333 -35.667 -212.166 -107 -278.499
s-176.333 -104.833 -315 -115.5v-141h-61v141c-129.333 12.667 -229 57.5 -299 134.5s-105 181.167 -105 312.5zM195 1087c0 -84 23.667 -151.833 71 -203.5s123.333 -91.5 228 -119.5l-1 612c-94 -3.33301 -167.167 -30.333 -219.5 -81s-78.5 -120 -78.5 -208zM555 38.998
c112.667 11.333 199.167 44.667 259.5 100s90.5 129 90.5 221c0 86 -28 154.667 -84 206s-144.667 89.333 -266 114v-641z" />
    <glyph glyph-name="percent" unicode="%" horiz-adv-x="1489" 
d="M82 1159c0 87.333 30.5 161.5 91.5 222.5s134.833 91.5 221.5 91.5c87.333 0 161.166 -30.5 221.499 -91.5s90.5 -135.167 90.5 -222.5s-30.167 -161.333 -90.5 -222s-134.166 -91 -221.499 -91c-86 0 -159.667 30.667 -221 92s-92 135 -92 221zM145 1157
c0 -69.333 24.501 -128.333 73.501 -177s107.833 -73 176.5 -73c69.333 0 128.666 24.5 177.999 73.5s74 107.833 74 176.5s-24.5 127.5 -73.5 176.5s-108.5 73.5 -178.5 73.5c-69.333 0 -128.333 -24.167 -177 -72.5s-73 -107.5 -73 -177.5zM299.001 -33l817 1506h72
l-819 -1506h-70zM780.001 279c0 86.667 30.5 160.499 91.5 221.499s135.167 91.5 222.5 91.5c86.667 0 160.5 -30.5 221.5 -91.5s91.5 -134.833 91.5 -221.5c0 -87.333 -30.5 -161.166 -91.5 -221.499s-134.833 -90.5 -221.5 -90.5s-160.667 30.5 -222 91.5
s-92 134.5 -92 220.5zM844.001 278.999c0 -69.333 24.3311 -128.335 72.998 -177.002s107.667 -73 177 -73c68.667 0 127.334 24.333 176.001 73s73 107.667 73 177c0 68.667 -24.167 127.334 -72.5 176.001s-107.166 73 -176.499 73c-70 0 -129.167 -24.167 -177.5 -72.5
s-72.5 -107.166 -72.5 -176.499z" />
    <glyph glyph-name="ampersand" unicode="&#x26;" horiz-adv-x="1247" 
d="M113 395c0 98 30.666 185.499 91.999 262.499s152.666 142.5 273.999 196.5c-66 82 -111.833 148.667 -137.5 200s-38.5 100 -38.5 146c0 80.667 27.167 146.334 81.5 197.001s124.833 76 211.5 76c84 0 152.167 -25.667 204.5 -77s78.5 -118 78.5 -200
c0 -77.333 -24.5 -146 -73.5 -206s-123.5 -113 -223.5 -159l419 -522c26.667 52 46.667 107.667 60 167s20 122 20 188l64 -1c-1.33301 -81.333 -10.166 -156 -26.499 -224s-40.166 -129 -71.499 -183l206 -256h-84l-161 197c-62 -77.333 -130.833 -136.333 -206.5 -177
s-154.5 -61 -236.5 -61c-133.333 0 -242 40.667 -326 122s-126 186 -126 314zM179.999 396.999c0 -105.333 35.499 -194.499 106.499 -267.499s157.833 -109.5 260.5 -109.5c82.667 0 160 20.167 232 60.5s134 98.166 186 173.499l-443 547
c-111.333 -40 -196.166 -94.333 -254.499 -163s-87.5 -149 -87.5 -241zM370.998 1210c0 -48.667 13.667 -99.332 41 -151.999s71 -111.667 131 -177c93.333 40 162 85.667 206 137s66 110.666 66 177.999c0 64 -21.333 116.5 -64 157.5s-97 61.5 -163 61.5
c-60.667 0 -112 -19.833 -154 -59.5s-63 -88.167 -63 -145.5z" />
    <glyph glyph-name="quotesingle" unicode="'" horiz-adv-x="274" 
d="M102 881v553h70v-553h-70z" />
    <glyph glyph-name="parenleft" unicode="(" horiz-adv-x="590" 
d="M199 528c0 171.333 23.832 333.669 71.499 487.002s121.5 303.666 221.5 450.999h71c-100 -141.333 -174.5 -288.333 -223.5 -441s-73.5 -315.334 -73.5 -488.001c0 -175.333 26 -343.833 78 -505.5s132 -322.5 240 -482.5h-70
c-105.333 158 -184.166 318.5 -236.499 481.5s-78.5 328.833 -78.5 497.5z" />
    <glyph glyph-name="parenright" unicode=")" horiz-adv-x="590" 
d="M12 -451c108.667 161.333 189.167 322.83 241.5 484.497s78.5 329.5 78.5 503.5c0 172.667 -24.5 335.334 -73.5 488.001s-123.5 299.667 -223.5 441h71c100 -147.333 173.833 -297.666 221.5 -450.999s71.5 -315.666 71.5 -486.999c0 -168 -26.333 -333.5 -79 -496.5
s-132 -323.833 -238 -482.5h-70z" />
    <glyph glyph-name="asterisk" unicode="*" horiz-adv-x="1024" 
d="M209 1229l24 69l252 -92l-8 267h70l-8 -267l249 92l27 -69l-262 -72l176 -223l-51 -41l-168 229l-164 -229l-53 41l178 223z" />
    <glyph glyph-name="plus" unicode="+" horiz-adv-x="1706" 
d="M254 580v61h569v580h62v-580h567v-61h-567v-580h-62v580h-569z" />
    <glyph glyph-name="comma" unicode="," horiz-adv-x="532" 
d="M137 -215l146 391h69l-145 -391h-70z" />
    <glyph glyph-name="hyphen" unicode="-" horiz-adv-x="702" 
d="M78 500v57h545v-57h-545z" />
    <glyph glyph-name="period" unicode="." horiz-adv-x="532" 
d="M233 0v178h66v-178h-66z" />
    <glyph glyph-name="slash" unicode="/" horiz-adv-x="598" 
d="M-27 -172l580 1683h70l-580 -1683h-70z" />
    <glyph glyph-name="zero" unicode="0" 
d="M80 696c0 236.667 39.167 418.5 117.5 545.5s189.833 190.5 334.5 190.5c146 0 258.333 -63.667 337 -191s118 -309 118 -545s-39.5 -417.833 -118.5 -545.5s-191.167 -191.5 -336.5 -191.5c-144.667 0 -256.167 63.667 -334.5 191s-117.5 309.333 -117.5 546zM150 696
c0 -218 33 -385.167 99 -501.5s161.333 -174.5 286 -174.5c124 0 218.833 57.833 284.5 173.5s98.5 283.167 98.5 502.5s-32.833 386.5 -98.5 501.5s-160.5 172.5 -284.5 172.5c-124.667 0 -220 -57.667 -286 -173s-99 -282.333 -99 -501z" />
    <glyph glyph-name="one" unicode="1" 
d="M207 1073l-0.000976562 59.001c104.667 2.66699 186.834 25.667 246.501 69s96.167 106.666 109.5 189.999h68v-1391h-68v1214c-42 -48 -90.5 -83.5 -145.5 -106.5s-119.167 -34.5 -192.5 -34.5h-18z" />
    <glyph glyph-name="two" unicode="2" 
d="M102 0v99.9961c0 56 3.83301 99.5 11.5 130.5s20.5 59.833 38.5 86.5c21.333 36 56.833 75.333 106.5 118s111.5 87.334 185.5 134.001l120 71c112.667 65.333 186.667 117 222 155c34.667 35.333 59.834 72.333 75.501 111s23.5 83.334 23.5 134.001
c0 99.333 -29.667 178.5 -89 237.5s-138.333 88.5 -237 88.5c-104.667 0 -188.167 -31.5 -250.5 -94.5s-93.5 -147.5 -93.5 -253.5v-23h-72v19c0 127.333 37.667 228.5 113 303.5s176.333 112.5 303 112.5c119.333 0 215.666 -35.333 288.999 -106s110 -163 110 -277
c0 -92 -22.5 -170 -67.5 -234s-139.167 -138.333 -282.5 -223c-183.333 -109.333 -302.833 -195.666 -358.5 -258.999s-83.5 -133.333 -83.5 -210c0 -16 0.333008 -28.167 1 -36.5s1.66699 -16.166 3 -23.499h780v-61h-848z" />
    <glyph glyph-name="three" unicode="3" 
d="M94 412l-0.00195312 10.0039h70v-6c0 -122.667 31 -217.834 93 -285.501s149 -101.5 261 -101.5c114 0 206.667 32.5 278 97.5s107 149.167 107 252.5c0 108.667 -35.5 189.667 -106.5 243s-178.833 80 -323.5 80h-41v60c6 0 14.167 -0.333008 24.5 -1s17.833 -1 22.5 -1
c120.667 0 214.334 27.833 281.001 83.5s100 133.5 100 233.5c0 90.667 -28.667 161.5 -86 212.5s-137 76.5 -239 76.5c-105.333 0 -187.666 -30.667 -246.999 -92s-89 -146 -89 -254v-10h-64v6c0 131.333 36 232.666 108 303.999s174 107 306 107
c114.667 0 207.167 -31.833 277.5 -95.5s105.5 -147.834 105.5 -252.501c0 -82.667 -21.167 -154.334 -63.5 -215.001s-100.5 -103 -174.5 -127c88 -19.333 156.833 -60 206.5 -122s74.5 -138 74.5 -228c0 -126.667 -41.833 -229 -125.5 -307s-193.5 -117 -329.5 -117
c-134 0 -238.5 39.5 -313.5 118.5s-112.5 189.167 -112.5 330.5z" />
    <glyph glyph-name="four" unicode="4" 
d="M96 371v65l660 955h59v-959h158v-61h-158v-371h-65v371h-654zM166 430h586v846z" />
    <glyph glyph-name="five" unicode="5" 
d="M98 358l66.002 0.000976562c11.333 -108.667 47 -192.167 107 -250.5s141 -87.5 243 -87.5c118 0 211.667 36.5 281 109.5s104 171.833 104 296.5c0 116.667 -34.333 210 -103 280s-159.334 105 -272.001 105c-67.333 0 -128.166 -12.333 -182.499 -37
s-100.5 -61.334 -138.5 -110.001h-56l115 727h649v-62h-596l-88 -557c41.333 33.333 87.333 58 138 74s108 24 172 24c127.333 0 231.166 -41.833 311.499 -125.5s120.5 -192.5 120.5 -326.5c0 -139.333 -41.167 -251 -123.5 -335s-191.5 -126 -327.5 -126
c-120 0 -216.833 35.333 -290.5 106s-116.834 169 -129.501 295z" />
    <glyph glyph-name="six" unicode="6" 
d="M96 662c0 257.333 40.332 449.168 120.999 575.501s203 189.5 367 189.5c106.667 0 192.167 -29.833 256.5 -89.5s102.166 -144.5 113.499 -254.5h-65c-13.333 92.667 -46.833 162.667 -100.5 210s-126.167 71 -217.5 71c-135.333 0 -236.666 -57 -303.999 -171
s-101 -285.667 -101 -515c0 -27.333 0.166992 -48.333 0.5 -63s0.833008 -27.667 1.5 -39c25.333 103.333 72 183.666 140 240.999s151 86 249 86c126 0 226.833 -42.5 302.5 -127.5s113.5 -199.5 113.5 -343.5c0 -141.333 -38.667 -255.5 -116 -342.5
s-176.666 -130.5 -297.999 -130.5c-154.667 0 -270.5 58.167 -347.5 174.5s-115.5 292.5 -115.5 528.5zM204.999 434.002c0 -124 31 -223.166 93 -297.499s144.333 -111.5 247 -111.5c108.667 0 195.167 36.5 259.5 109.5s96.5 172.167 96.5 297.5
c0 126 -31.333 225.833 -94 299.5s-146.667 110.5 -252 110.5c-104.667 0 -189.167 -37.333 -253.5 -112s-96.5 -173.334 -96.5 -296.001z" />
    <glyph glyph-name="seven" unicode="7" 
d="M119 1325l0.000976562 66.001h829v-68c-144.667 -172.667 -264 -368.834 -358 -588.501s-163 -464.5 -207 -734.5h-68c35.333 246.667 98.666 480.5 189.999 701.5s211 428.833 359 623.5h-745z" />
    <glyph glyph-name="eight" unicode="8" 
d="M90 387c0 94 22.501 172.334 67.501 235.001s112.5 110 202.5 142c-70 29.333 -123 70 -159 122s-54 114.333 -54 187c0 106.667 35.333 192.834 106 258.501s163.667 98.5 279 98.5c118 0 211.833 -32.333 281.5 -97s104.5 -151.334 104.5 -260.001
c0 -73.333 -17.167 -135 -51.5 -185s-87.5 -91.333 -159.5 -124c89.333 -29.333 156.666 -75 201.999 -137s68 -139.333 68 -232c0 -132 -40.833 -237.333 -122.5 -316s-191.167 -118 -328.5 -118c-128 0 -232.667 39.667 -314 119s-122 181.666 -122 306.999z
M162.001 397.001c0 -108 34.333 -196 103 -264s157.667 -102 267 -102s198.833 33.833 268.5 101.5s104.5 154.5 104.5 260.5c0 104 -33.333 186 -100 246s-157.667 90 -273 90c-114.667 0 -205 -29.5 -271 -88.5s-99 -140.167 -99 -243.5zM221.001 1079
c0 -86.667 28.5 -156.333 85.5 -209s132.167 -79 225.5 -79s169 26.5 227 79.5s87 122.5 87 208.5c0 86.667 -28.833 156.834 -86.5 210.501s-133.5 80.5 -227.5 80.5c-93.333 0 -168.5 -26.833 -225.5 -80.5s-85.5 -123.834 -85.5 -210.501z" />
    <glyph glyph-name="nine" unicode="9" 
d="M96 954c0 141.333 38.334 255.502 115.001 342.502s175.667 130.5 297 130.5c155.333 0 271.666 -58.333 348.999 -175s116 -292.334 116 -527.001c0 -257.333 -40.5 -449.333 -121.5 -576s-203.833 -190 -368.5 -190c-106.667 0 -192.167 30 -256.5 90
s-102.166 144.667 -113.499 254h65c13.333 -92 46.833 -161.667 100.5 -209s126.167 -71 217.5 -71c135.333 0 236.666 57 303.999 171s101 285.667 101 515c0 27.333 -0.166992 48.166 -0.5 62.499s-0.833008 27.5 -1.5 39.5c-25.333 -104 -72 -184.667 -140 -242
s-151 -86 -249 -86c-126 0 -226.5 42.5 -301.5 127.5s-112.5 199.5 -112.5 343.5zM166.001 954.002c0 -125.333 31.334 -224.834 94.001 -298.501s146.667 -110.5 252 -110.5c104.667 0 189.5 37.333 254.5 112s97.5 173 97.5 295c0 124 -31.333 223.333 -94 298
s-145.334 112 -248.001 112c-108.667 0 -195.167 -36.667 -259.5 -110s-96.5 -172.666 -96.5 -297.999z" />
    <glyph glyph-name="colon" unicode=":" horiz-adv-x="582" 
d="M256 0v178h68v-178h-68zM256 819v178h68v-178h-68z" />
    <glyph glyph-name="semicolon" unicode=";" horiz-adv-x="582" 
d="M131 -215l143 391h70l-145 -391h-68zM279 819v178h65v-178h-65z" />
    <glyph glyph-name="less" unicode="&#x3c;" horiz-adv-x="1706" 
d="M264 590v41l1178 481v-70l-1069 -432l1069 -432v-69z" />
    <glyph glyph-name="equal" unicode="=" horiz-adv-x="1706" 
d="M254 401v64h1198v-64h-1198zM254 756v63h1198v-63h-1198z" />
    <glyph glyph-name="greater" unicode="&#x3e;" horiz-adv-x="1706" 
d="M264 109v69l1067 432l-1067 432v70l1178 -481v-41z" />
    <glyph glyph-name="question" unicode="?" horiz-adv-x="948" 
d="M63 1055c0 140.667 37.5 250.503 112.5 329.503s178.833 118.5 311.5 118.5c120.667 0 217.5 -32.333 290.5 -97s109.5 -150.334 109.5 -257.001c0 -40 -5.66699 -78.333 -17 -115s-28.333 -71.334 -51 -104.001c-34.667 -50 -87 -106.333 -157 -169l-46 -42
c-40.667 -41.333 -67.834 -73.166 -81.501 -95.499s-23.167 -45.833 -28.5 -70.5c-5.33301 -26.667 -10 -56 -14 -88s-7 -66 -9 -102h-65c0.666992 38 3 74.333 7 109s9 67 15 97c6.66699 30.667 18.334 59.5 35.001 86.5s49 65.5 97 115.5l51 49
c64.667 59.333 113 111.666 145 156.999c16.667 24 29 49.333 37 76s12 56 12 88c0 95.333 -29.5 168.666 -88.5 219.999s-143.5 77 -253.5 77c-109.333 0 -194 -32.833 -254 -98.5s-90 -158.5 -90 -278.5v-6h-68zM412 0.00292969v176h80v-176h-80z" />
    <glyph glyph-name="at" unicode="@" horiz-adv-x="2048" 
d="M127 524c0 107.333 16.502 208.673 49.502 304.006s82.167 182.666 147.5 261.999c94.667 115.333 209.167 203.166 343.5 263.499s283.166 90.5 446.499 90.5c105.333 0 206 -14.667 302 -44s178.333 -70 247 -122c84.667 -65.333 148.834 -140.5 192.501 -225.5
s65.5 -177.167 65.5 -276.5c0 -110.667 -20.667 -212 -62 -304s-100.666 -168.667 -177.999 -230c-46 -36 -94.833 -63.5 -146.5 -82.5s-103.834 -28.5 -156.501 -28.5c-62.667 0 -109.667 11.833 -141 35.5s-47 58.834 -47 105.501c0 4.66699 0.166992 10 0.5 16
s1.5 15.667 3.5 29c-31.333 -58 -72.666 -103.833 -123.999 -137.5s-106.333 -50.5 -165 -50.5c-102.667 0 -180.834 27.5 -234.501 82.5s-80.5 135.5 -80.5 241.5c0 150.667 45 278.667 135 384s198.667 158 326 158c65.333 0 119.5 -14.667 162.5 -44
s74.833 -73.333 95.5 -132l61 135h66l-138 -546c-10.667 -42.667 -17.334 -71.5 -20.001 -86.5s-4 -26.5 -4 -34.5c0 -30 10.833 -53.167 32.5 -69.5s52.5 -24.5 92.5 -24.5c46.667 0 93.667 11 141 33s89.666 52.333 126.999 91c54 57.333 96.167 126.666 126.5 207.999
s45.5 165.666 45.5 252.999c0 180 -67.667 326 -203 438s-312 168 -530 168c-110.667 0 -213.667 -15.833 -309 -47.5s-181.333 -78.5 -258 -140.5c-105.333 -84.667 -185.333 -185.334 -240 -302.001s-82 -245.334 -82 -386.001c0 -218 74.167 -393 222.5 -525
s345.833 -198 592.5 -198c109.333 0 218.833 16.667 328.5 50s210.5 80.666 302.5 141.999l23 -34c-96 -71.333 -197.833 -125 -305.5 -161s-220.5 -54 -338.5 -54c-126.667 0 -241.5 15 -344.5 45s-193.5 75 -271.5 135c-100.667 76.667 -175.667 166 -225 268
s-74 218 -74 348zM682.002 446.007c0 -80 19.666 -142.167 58.999 -186.5s94 -66.5 164 -66.5c76.667 0 144 24.5 202 73.5s98 115.167 120 198.5l65 258c-15.333 68 -43.666 119.833 -84.999 155.5s-94 53.5 -158 53.5c-104 0 -191.167 -46.5 -261.5 -139.5
s-105.5 -208.5 -105.5 -346.5z" />
    <glyph glyph-name="A" unicode="A" horiz-adv-x="1176" 
d="M-12 0l569 1473h78l559 -1473h-68l-190 502h-686l-193 -502h-69zM274 563h637l-315 830z" />
    <glyph glyph-name="B" unicode="B" horiz-adv-x="1266" 
d="M168 0v1473h403c101.333 0 180.5 -5 237.5 -15s104.833 -26.333 143.5 -49c50.667 -30 89.667 -71.167 117 -123.5s41 -111.5 41 -177.5c0 -79.333 -21.667 -147.833 -65 -205.5s-105.666 -101.167 -186.999 -130.5c110.667 -21.333 193 -63.166 247 -125.499
s81 -146.833 81 -253.5c0 -68.667 -14.833 -131.334 -44.5 -188.001s-70.834 -101 -123.501 -133c-40.667 -26 -90.667 -44.5 -150 -55.5s-143.333 -16.5 -252 -16.5h-448zM238 61h364.002c98 0 169.667 2.83301 215 8.5s84.333 15.167 117 28.5
c57.333 24 101.666 62.833 132.999 116.5s47 117.5 47 191.5c0 116 -40.333 200.5 -121 253.5s-210.334 79.5 -389.001 79.5h-366v-678zM238.002 793h342c158 0 274.167 25.833 348.5 77.5s111.5 132.167 111.5 241.5c0 107.333 -34.5 184 -103.5 230s-189.5 69 -361.5 69
h-337v-618z" />
    <glyph glyph-name="C" unicode="C" horiz-adv-x="1395" 
d="M104 733c0 242.667 55.1689 431.999 165.502 567.999s263.5 204 459.5 204c150 0 276.167 -42.5 378.5 -127.5s160.5 -196.167 174.5 -333.5h-70c-20 126.667 -73.333 225 -160 295s-198.334 105 -335.001 105c-165.333 0 -296.833 -63.667 -394.5 -191
s-146.5 -300.666 -146.5 -519.999s47.5 -391.5 142.5 -516.5s224.5 -187.5 388.5 -187.5c150 0 271 41.167 363 123.5s141.667 193.833 149 334.5h67c-9.33301 -158.667 -65.333 -284.667 -168 -378s-236.334 -140 -401.001 -140c-192.667 0 -343 67.167 -451 201.5
s-162 321.833 -162 562.5z" />
    <glyph glyph-name="D" unicode="D" horiz-adv-x="1411" 
d="M168 0l0.000976562 1473h338c124 0 221.167 -5.66699 291.5 -17s130.833 -29.666 181.5 -54.999c106.667 -52.667 187.667 -135.5 243 -248.5s83 -252.167 83 -417.5c0 -166 -27.833 -305.667 -83.5 -419s-136.5 -194.666 -242.5 -243.999
c-52.667 -25.333 -115.834 -43.666 -189.501 -54.999s-168.167 -17 -283.5 -17h-338zM238.001 60.9971h284.001c110.667 0 199 5.83301 265 17.5s124 30.5 174 56.5c88 46.667 155.333 121.334 202 224.001s70 228 70 376c0 124.667 -16.333 232.667 -49 324
s-81.334 165.666 -146.001 222.999c-51.333 46 -114.333 78.667 -189 98s-183.667 29 -327 29h-284v-1348z" />
    <glyph glyph-name="E" unicode="E" horiz-adv-x="1161" 
d="M168 0v1473h899v-66h-829v-608h757v-64h-757v-669h849v-66h-919z" />
    <glyph glyph-name="F" unicode="F" horiz-adv-x="1071" 
d="M168 0v1473h860v-66h-790v-608h698v-64h-698v-735h-70z" />
    <glyph glyph-name="G" unicode="G" horiz-adv-x="1452" 
d="M106 735c0 238 57.167 425.833 171.5 563.5s270.166 206.5 467.499 206.5c161.333 0 292.166 -39.333 392.499 -118s160.833 -189.334 181.5 -332.001h-70c-23.333 124 -78.666 219.833 -165.999 287.5s-200 101.5 -338 101.5c-173.333 0 -311.166 -63.667 -413.499 -191
s-153.5 -300 -153.5 -518c0 -217.333 51 -389.333 153 -516s240 -190 414 -190c163.333 0 292.333 49.333 387 148s142 233 142 403v63h-486v62h551v-705h-59v289c-53.333 -108.667 -124 -189.5 -212 -242.5s-195.667 -79.5 -323 -79.5c-196 0 -351.5 68.833 -466.5 206.5
s-172.5 324.834 -172.5 561.501z" />
    <glyph glyph-name="H" unicode="H" horiz-adv-x="1405" 
d="M168 0v1473h70v-656h931v656h68v-1473h-68v756h-931v-756h-70z" />
    <glyph glyph-name="I" unicode="I" horiz-adv-x="424" 
d="M178 0v1473h68v-1473h-68z" />
    <glyph glyph-name="J" unicode="J" horiz-adv-x="969" 
d="M78 373c0 21.333 0.166992 38.166 0.5 50.499s0.833008 23.833 1.5 34.5l63 1c0 -9.33301 -0.333008 -20.666 -1 -33.999s-1 -22 -1 -26c0 -126 25 -219.5 75 -280.5s126 -91.5 228 -91.5c108.667 0 186.5 31.333 233.5 94s70.5 172 70.5 328v1024h67v-1045
c0 -160 -30.333 -277.167 -91 -351.5s-156 -111.5 -286 -111.5c-116 0 -205 35 -267 105s-93 171 -93 303z" />
    <glyph glyph-name="K" unicode="K" horiz-adv-x="1192" 
d="M168 0v1473h70v-830l817 830h88l-582 -590l670 -883h-82l-633 836l-278 -283v-553h-70z" />
    <glyph glyph-name="L" unicode="L" horiz-adv-x="1042" 
d="M170 0v1473h70v-1407h780v-66h-850z" />
    <glyph glyph-name="M" unicode="M" horiz-adv-x="1583" 
d="M168 0v1473h98l527 -1387l526 1387h96v-1473h-61v1386l-531 -1386h-65l-529 1386v-1386h-61z" />
    <glyph glyph-name="N" unicode="N" horiz-adv-x="1397" 
d="M168 0v1473h70l923 -1356v1356h68v-1473h-68l-925 1354v-1354h-68z" />
    <glyph glyph-name="O" unicode="O" horiz-adv-x="1518" 
d="M106 735c0 240 58 428.335 174 565.002s275.333 205 478 205s362.167 -68.5 478.5 -205.5s174.5 -325.167 174.5 -564.5c0 -238.667 -58 -426.334 -174 -563.001s-275.667 -205 -479 -205c-202.667 0 -362 68.167 -478 204.5s-174 324.166 -174 563.499zM178 735.002
c0 -220 51.333 -392.667 154 -518s244.667 -188 426 -188c180.667 0 322.667 62.667 426 188s155 298 155 518c0 220.667 -51.667 394 -155 520s-245.333 189 -426 189s-322.5 -62.833 -425.5 -188.5s-154.5 -299.167 -154.5 -520.5z" />
    <glyph glyph-name="P" unicode="P" horiz-adv-x="1178" 
d="M168 0l0.000976562 1473h401c181.333 0 315.166 -31.667 401.499 -95s129.5 -161.666 129.5 -294.999c0 -58.667 -9.5 -112.667 -28.5 -162s-46.5 -92 -82.5 -128c-40.667 -41.333 -91.167 -70.5 -151.5 -87.5s-151.833 -25.5 -274.5 -25.5h-325v-680h-70z
M238.001 740.999l279.999 -0.00195312c108.667 0 185 3 229 9s81.667 16 113 30c52 23.333 93 62.5 123 117.5s45 119.167 45 192.5c0 60.667 -12.5 113.834 -37.5 159.501s-61.5 81.834 -109.5 108.501c-34.667 19.333 -76.667 33 -126 41s-127.666 12 -234.999 12h-282
v-670z" />
    <glyph glyph-name="Q" unicode="Q" horiz-adv-x="1518" 
d="M106 735c0 240 58.001 428.333 174.001 565s275.333 205 478 205c200.667 0 359.667 -67.5 477 -202.5s176 -318.5 176 -550.5c0 -139.333 -19 -262 -57 -368s-95.333 -196.333 -172 -271l198 -162l-43 -49l-207 170c-46.667 -35.333 -102.334 -61.666 -167.001 -78.999
s-138 -26 -220 -26c-196 0 -351.167 68.667 -465.5 206s-171.5 324.666 -171.5 561.999zM178.001 735c0 -221.333 51.167 -394 153.5 -518s244.5 -186 426.5 -186c66 0 125.667 7 179 21s100 35 140 63l-172 141l41 47l187 -147c67.333 60.667 118.5 140.5 153.5 239.5
s52.5 212.167 52.5 339.5c0 220.667 -51.667 394 -155 520s-245.333 189 -426 189s-322.5 -62.833 -425.5 -188.5s-154.5 -299.167 -154.5 -520.5z" />
    <glyph glyph-name="R" unicode="R" horiz-adv-x="1274" 
d="M168 0l0.000976562 1473h489c180 0 309 -30.167 387 -90.5s117 -158.833 117 -295.5c0 -94 -21.833 -171 -65.5 -231s-110.5 -103.667 -200.5 -131c62 -12 110.167 -39 144.5 -81s55.166 -99.667 62.499 -173c4.66699 -46.667 8.66699 -110 12 -190
c6.66699 -148 25 -241.667 55 -281h-75c-23.333 28.667 -38.333 112 -45 250c-1.33301 22.667 -2 39.667 -2 51c-0.666992 8 -1.33398 19.667 -2.00098 35c-8 139.333 -30.667 231.333 -68 276c-25.333 30 -59.666 51.5 -102.999 64.5s-104 19.5 -182 19.5h-454v-696h-70z
M238.001 758h453.998c131.333 0 230.833 27.333 298.5 82s101.5 135 101.5 241c0 48.667 -7.16699 92.667 -21.5 132s-35.166 73.333 -62.499 102c-33.333 34 -72.666 58.167 -117.999 72.5s-123 21.5 -233 21.5h-419v-651z" />
    <glyph glyph-name="S" unicode="S" horiz-adv-x="1174" 
d="M92 449l68.001 -0.00292969c8 -129.333 51.167 -231.666 129.5 -306.999s180.5 -113 306.5 -113c123.333 0 223.833 32 301.5 96s116.5 146.667 116.5 248c0 91.333 -25.5 161.5 -76.5 210.5s-169.5 99.5 -355.5 151.5l-28 8
c-167.333 46.667 -274.333 91.334 -321 134.001c-34 30.667 -59.833 66.667 -77.5 108s-26.5 86.333 -26.5 135c0 116 40.167 209.167 120.5 279.5s187.5 105.5 321.5 105.5c139.333 0 251.5 -38.833 336.5 -116.5s129.833 -182.834 134.5 -315.501l-65 1
c-2 112.667 -40.333 203.167 -115 271.5s-173 102.5 -295 102.5c-114.667 0 -205.334 -29.5 -272.001 -88.5s-100 -138.833 -100 -239.5c0 -38 7.5 -73.667 22.5 -107s37.5 -63.666 67.5 -90.999c40.667 -38.667 137.667 -78.667 291 -120
c12.667 -3.33301 22 -5.66602 28 -6.99902c194.667 -52.667 323.167 -107.667 385.5 -165s93.5 -137 93.5 -239c0 -128 -44.333 -230.667 -133 -308s-207.334 -116 -356.001 -116c-144.667 0 -261.667 42.667 -351 128s-139.666 203.333 -150.999 354z" />
    <glyph glyph-name="T" unicode="T" horiz-adv-x="1042" 
d="M33 1409v64h987v-64h-459v-1409h-69v1409h-459z" />
    <glyph glyph-name="U" unicode="U" horiz-adv-x="1374" 
d="M158 514l-0.000976562 959h67v-926c0 -169.333 39.333 -298 118 -386s193.667 -132 345 -132c150 0 264.667 44.333 344 133s119 217 119 385v926h68v-959c0 -170.667 -47.167 -304.5 -141.5 -401.5s-224.166 -145.5 -389.499 -145.5c-167.333 0 -297.5 48 -390.5 144
s-139.5 230.333 -139.5 403z" />
    <glyph glyph-name="V" unicode="V" horiz-adv-x="1075" 
d="M-6 1473h72l473 -1373l471 1373h71l-512 -1473h-65z" />
    <glyph glyph-name="W" unicode="W" horiz-adv-x="1688" 
d="M16 1473h70l360 -1350l357 1350h84l356 -1350l359 1350h69l-393 -1473h-70l-364 1376l-365 -1376h-69z" />
    <glyph glyph-name="X" unicode="X" horiz-adv-x="1085" 
d="M2 0l500 754l-477 719h79l439 -662l436 662h76l-471 -717l499 -756h-77l-467 694l-461 -694h-76z" />
    <glyph glyph-name="Y" unicode="Y" horiz-adv-x="1085" 
d="M2 1473h78l465 -752l459 752h77l-506 -826v-647h-67v651z" />
    <glyph glyph-name="Z" unicode="Z" horiz-adv-x="1083" 
d="M18 0v68l947 1341h-867v64h940v-70l-946 -1342h971v-61h-1045z" />
    <glyph glyph-name="bracketleft" unicode="[" horiz-adv-x="618" 
d="M236 -422v1892h346v-63h-275v-1767h275v-62h-346z" />
    <glyph glyph-name="backslash" unicode="\" horiz-adv-x="598" 
d="M-27 1511h70l580 -1683h-70z" />
    <glyph glyph-name="bracketright" unicode="]" horiz-adv-x="618" 
d="M45 -360h274v1767h-274v63h346v-1892h-346v62z" />
    <glyph glyph-name="asciicircum" unicode="^" horiz-adv-x="2048" 
d="M426 903l547 553h98l549 -553h-109l-487 483l-489 -483h-109z" />
    <glyph glyph-name="underscore" unicode="_" horiz-adv-x="1024" 
d="M0 -422h1024v-61h-1024v61z" />
    <glyph glyph-name="grave" unicode="`" horiz-adv-x="1024" 
d="M309 1524h109l209 -328h-64z" />
    <glyph glyph-name="a" unicode="a" horiz-adv-x="1038" 
d="M70 272c0 94 32.002 165.669 96.002 215.002s173.333 85 328 107c27.333 4 64.333 8.66699 111 14c140 16 210 52.333 210 109v90c0 72 -24.667 127.167 -74 165.5s-120.333 57.5 -213 57.5c-106 0 -189.5 -23 -250.5 -69s-94.167 -111 -99.5 -195h-61
c4 99.333 42.167 177.666 114.5 234.999s169.166 86 290.499 86c74 0 137.5 -10.333 190.5 -31s93.5 -51 121.5 -91c16 -23.333 27.5 -49.833 34.5 -79.5s10.5 -76.5 10.5 -140.5v-45v-473c0 -75.333 6.66699 -124.833 20 -148.5s38 -35.5 74 -35.5c6.66699 0 17.667 1 33 3
c2.66699 0.666992 4.66699 1 6 1v-53c-7.33301 -0.666992 -17.333 -1.83398 -30 -3.50098s-22 -2.5 -28 -2.5c-48.667 0 -84 15 -106 45s-33 79 -33 147c-42.667 -66 -100.834 -117 -174.501 -153s-158.167 -54 -253.5 -54c-94.667 0 -171.167 27.5 -229.5 82.5
s-87.5 127.167 -87.5 216.5zM137.002 283.002c0 -78.667 23.334 -139.333 70.001 -182s113 -64 199 -64c57.333 0 112.5 9.16699 165.5 27.5s98.833 43.833 137.5 76.5c39.333 34.667 66.833 73.5 82.5 116.5s23.5 107.5 23.5 193.5v157
c-16.667 -22.667 -91.334 -41.667 -224.001 -57c-21.333 -2.66699 -38 -4.66699 -50 -6c-151.333 -19.333 -256.5 -48.833 -315.5 -88.5s-88.5 -97.5 -88.5 -173.5z" />
    <glyph glyph-name="b" unicode="b" horiz-adv-x="1171" 
d="M141 0l-0.00292969 1470h66v-649c36.667 87.333 88.834 153.166 156.501 197.499s149.167 66.5 244.5 66.5c144.667 0 259 -49.667 343 -149s126 -235.333 126 -408s-41.833 -308.667 -125.5 -408s-198.167 -149 -343.5 -149c-93.333 0 -173.166 21 -239.499 63
s-120.166 105.667 -161.499 191v-225h-66zM206.997 528.001c0 -154.667 35.833 -276.5 107.5 -365.5s169.5 -133.5 293.5 -133.5c124.667 0 223.167 44.5 295.5 133.5s108.5 210.833 108.5 365.5c0 155.333 -36.167 277.5 -108.5 366.5s-170.833 133.5 -295.5 133.5
c-124 0 -221.833 -44.5 -293.5 -133.5s-107.5 -211.167 -107.5 -366.5z" />
    <glyph glyph-name="c" unicode="c" horiz-adv-x="1063" 
d="M90 528c0 172.667 41.668 308.667 125.001 408s197.333 149 342 149c112 0 203.667 -29.333 275 -88s114.333 -140.334 129 -245.001h-66c-14.667 84.667 -52.334 151.834 -113.001 201.501s-135.667 74.5 -225 74.5c-124 0 -221.833 -44.5 -293.5 -133.5
s-107.5 -211.167 -107.5 -366.5c0 -154.667 35.833 -276.5 107.5 -365.5s169.5 -133.5 293.5 -133.5c93.333 0 172.333 28.667 237 86s103 133 115 227h62c-12.667 -114 -56.5 -204.333 -131.5 -271s-171.167 -100 -288.5 -100c-140.667 0 -252.667 50.167 -336 150.5
s-125 235.833 -125 406.5z" />
    <glyph glyph-name="d" unicode="d" horiz-adv-x="1171" 
d="M94 528c0 172.667 42 308.667 126 408s198.333 149 343 149c96 0 179.167 -22.333 249.5 -67s121.166 -107.667 152.499 -189v641h63v-1470h-63v236c-34 -86.667 -85.167 -152.5 -153.5 -197.5s-151.166 -67.5 -248.499 -67.5c-145.333 0 -259.833 49.667 -343.5 149
s-125.5 235.333 -125.5 408zM160 528c0 -154.667 36.167 -276.5 108.5 -365.5s170.5 -133.5 294.5 -133.5s222 44.5 294 133.5s108 210.833 108 365.5c0 155.333 -36 277.5 -108 366.5s-170 133.5 -294 133.5s-222.167 -44.5 -294.5 -133.5s-108.5 -211.167 -108.5 -366.5z
" />
    <glyph glyph-name="e" unicode="e" horiz-adv-x="1071" 
d="M88 528c0 172 40.499 307.833 121.499 407.5s190.833 149.5 329.5 149.5c139.333 0 248.5 -46.167 327.5 -138.5s118.5 -220.166 118.5 -383.499v-39h-829v-16c0 -143.333 35.333 -259 106 -347s163 -132 277 -132c87.333 0 163.5 25.167 228.5 75.5
s109.5 119.166 133.5 206.499h64c-24 -103.333 -74.667 -185.833 -152 -247.5s-168.666 -92.5 -273.999 -92.5c-138.667 0 -248.5 50 -329.5 150s-121.5 235.667 -121.5 407zM157.999 584l756.999 -0.000976562c0 134 -33.5 241.5 -100.5 322.5s-154.833 121.5 -263.5 121.5
c-113.333 0 -205.166 -39.667 -275.499 -119s-109.5 -187.666 -117.5 -324.999z" />
    <glyph glyph-name="f" unicode="f" horiz-adv-x="498" 
d="M61 1004v59.001h148v149c0 105.333 14 176.5 42 213.5s79.667 55.5 155 55.5c12 0 21.5 -0.166992 28.5 -0.5s13.5 -0.833008 19.5 -1.5l1 -54c-4 0 -10.167 0.333008 -18.5 1s-14.5 1 -18.5 1c-56.667 0 -95.167 -13.333 -115.5 -40s-30.5 -84.334 -30.5 -173.001v-151
h179v-59h-179v-1004h-63v1004h-148z" />
    <glyph glyph-name="g" unicode="g" horiz-adv-x="1171" 
d="M94 528c0 173.333 41.8311 309.499 125.498 408.499s198.167 148.5 343.5 148.5c96.667 0 180.5 -23 251.5 -69s121.167 -109.667 150.5 -191v238h63v-1006c0 -80.667 -5.16699 -142.167 -15.5 -184.5s-27.5 -81.166 -51.5 -116.499
c-41.333 -60.667 -98 -106.5 -170 -137.5s-157.333 -46.5 -256 -46.5c-120 0 -216 28.5 -288 85.5s-108.667 132.833 -110 227.5h62c4 -80 37 -142.667 99 -188s146.333 -68 253 -68c88.667 0 163.5 15.167 224.5 45.5s108.5 75.5 142.5 135.5c16.667 30 28.667 65 36 105
s11 108 11 204v108c-35.333 -82 -88.166 -145.5 -158.499 -190.5s-152.833 -67.5 -247.5 -67.5c-143.333 0 -256.666 50 -339.999 150s-125 236.333 -125 409zM159.998 527.999c0 -154.667 36.167 -276.5 108.5 -365.5s170.5 -133.5 294.5 -133.5s222 44.5 294 133.5
s108 210.833 108 365.5c0 155.333 -36 277.5 -108 366.5s-170 133.5 -294 133.5s-222.167 -44.5 -294.5 -133.5s-108.5 -211.167 -108.5 -366.5z" />
    <glyph glyph-name="h" unicode="h" 
d="M141 0l0.00195312 1470h66v-581c32.667 64 79.667 112.667 141 146s133.666 50 216.999 50c122.667 0 214.167 -31.333 274.5 -94s90.5 -158 90.5 -286v-705h-66v684c0 121.333 -23.333 208.666 -70 261.999s-122.334 80 -227.001 80
c-60 0 -112.833 -8.83301 -158.5 -26.5s-84.167 -44.167 -115.5 -79.5s-53.5 -76.5 -66.5 -123.5s-19.5 -122.833 -19.5 -227.5v-59v-510h-66z" />
    <glyph glyph-name="i" unicode="i" horiz-adv-x="358" 
d="M147 0v1063h64v-1063h-64zM147 1298v172h64v-172h-64z" />
    <glyph glyph-name="j" unicode="j" horiz-adv-x="358" 
d="M-14 -362l22 -0.000976562c56 0 93.667 11 113 33s29 84 29 186v1206h63v-1229c0 -107.333 -13.167 -177.166 -39.5 -209.499s-76.5 -48.5 -150.5 -48.5h-37v62zM150 1298v172h63v-172h-63z" />
    <glyph glyph-name="k" unicode="k" horiz-adv-x="938" 
d="M141 0v1470h66v-1013l612 606h80l-387 -387l449 -676h-74l-420 631l-260 -252v-379h-66z" />
    <glyph glyph-name="l" unicode="l" horiz-adv-x="358" 
d="M147 0v1470h64v-1470h-64z" />
    <glyph glyph-name="m" unicode="m" horiz-adv-x="1673" 
d="M141 0l0.00292969 1063h66v-174c34 64 79.167 112.667 135.5 146s121.833 50 196.5 50c82 0 150.167 -18.5 204.5 -55.5s91.166 -90.833 110.499 -161.5c36 71.333 83.167 125.333 141.5 162s126.5 55 204.5 55c111.333 0 195.166 -31.833 251.499 -95.5
s84.5 -158.5 84.5 -284.5v-705h-66v639c0 70.667 -2.33301 123.5 -7 158.5s-12.334 65.5 -23.001 91.5c-18.667 43.333 -49.167 77 -91.5 101s-92.5 36 -150.5 36c-51.333 0 -98.333 -9.16699 -141 -27.5s-78.334 -44.5 -107.001 -78.5
c-28.667 -35.333 -49.167 -76.333 -61.5 -123s-18.5 -121.334 -18.5 -224.001v-63v-510h-63v639c0 70.667 -2.33301 123.5 -7 158.5s-12.667 65.5 -24 91.5c-18.667 43.333 -49.167 77 -91.5 101s-92.166 36 -149.499 36c-52 0 -99.333 -9.16699 -142 -27.5
s-78 -44.5 -106 -78.5c-29.333 -35.333 -50 -76.333 -62 -123s-18 -121.334 -18 -224.001v-63v-510h-66z" />
    <glyph glyph-name="n" unicode="n" 
d="M141 0l0.00195312 1063h66v-174c32.667 64 79.667 112.667 141 146s133.666 50 216.999 50c122.667 0 214.167 -31.333 274.5 -94s90.5 -158 90.5 -286v-705h-66v684c0 121.333 -23.333 208.666 -70 261.999s-122.334 80 -227.001 80
c-60 0 -112.833 -8.83301 -158.5 -26.5s-84.167 -44.167 -115.5 -79.5s-53.5 -76.5 -66.5 -123.5s-19.5 -122.833 -19.5 -227.5v-59v-510h-66z" />
    <glyph glyph-name="o" unicode="o" horiz-adv-x="1116" 
d="M90 528c0 172.667 41.667 308.667 125 408s197.333 149 342 149s259 -49.667 343 -149s126 -235.333 126 -408c0 -172 -42 -307.833 -126 -407.5s-198.333 -149.5 -343 -149.5s-258.667 49.667 -342 149s-125 235.333 -125 408zM156 528
c0 -154.667 35.833 -276.5 107.5 -365.5s169.5 -133.5 293.5 -133.5s222.333 44.5 295 133.5s109 210.833 109 365.5c0 155.333 -36.333 277.5 -109 366.5s-171 133.5 -295 133.5s-221.833 -44.5 -293.5 -133.5s-107.5 -211.167 -107.5 -366.5z" />
    <glyph glyph-name="p" unicode="p" horiz-adv-x="1171" 
d="M141 -422v1485h66v-244c34 87.333 84.833 153.5 152.5 198.5s150.5 67.5 248.5 67.5c145.333 0 259.833 -49.5 343.5 -148.5s125.5 -235.167 125.5 -408.5c0 -172 -42 -307.833 -126 -407.5s-198.333 -149.5 -343 -149.5c-96.667 0 -179.5 22.167 -248.5 66.5
s-119.833 108.166 -152.5 191.499v-651h-66zM207 528.001c0 -154.667 35.833 -276.5 107.5 -365.5s169.5 -133.5 293.5 -133.5c124.667 0 223.167 44.5 295.5 133.5s108.5 210.833 108.5 365.5c0 155.333 -36.167 277.5 -108.5 366.5s-170.833 133.5 -295.5 133.5
c-124 0 -221.833 -44.5 -293.5 -133.5s-107.5 -211.167 -107.5 -366.5z" />
    <glyph glyph-name="q" unicode="q" horiz-adv-x="1171" 
d="M94 528c0 173.333 41.833 309.499 125.5 408.499s198.167 148.5 343.5 148.5c98 0 181 -22.5 249 -67.5s119 -111.167 153 -198.5v244h63v-1485h-63v651c-33.333 -83.333 -84.5 -147.166 -153.5 -191.499s-151.833 -66.5 -248.5 -66.5c-144.667 0 -259 49.833 -343 149.5
s-126 235.5 -126 407.5zM160 527.999c0 -154.667 36.167 -276.5 108.5 -365.5s170.5 -133.5 294.5 -133.5s222 44.5 294 133.5s108 210.833 108 365.5c0 155.333 -36 277.5 -108 366.5s-170 133.5 -294 133.5s-222.167 -44.5 -294.5 -133.5s-108.5 -211.167 -108.5 -366.5z
" />
    <glyph glyph-name="r" unicode="r" horiz-adv-x="539" 
d="M141 0v1063h66v-191c26.667 70.667 66.667 123.834 120 159.501s119 53.5 197 53.5v-63c-114.667 -4.66699 -196.167 -44.667 -244.5 -120s-72.5 -204 -72.5 -386v-516h-66z" />
    <glyph glyph-name="s" unicode="s" horiz-adv-x="985" 
d="M102 315l64 0.00195312c17.333 -92.667 54.666 -162.834 111.999 -210.501s133.333 -71.5 228 -71.5s170.5 22 227.5 66s85.5 102.333 85.5 175c0 52 -16.667 94.167 -50 126.5s-86.666 58.5 -159.999 78.5l-56 15c-172.667 44 -284.667 86.333 -336 127
c-27.333 21.333 -48.5 47.833 -63.5 79.5s-22.5 66.5 -22.5 104.5c0 82.667 33.667 150 101 202s155.333 78 264 78c101.333 0 184 -27.167 248 -81.5s100.667 -128.833 110 -223.5h-63c-11.333 80.667 -43 142.167 -95 184.5s-121.667 63.5 -209 63.5
c-84.667 0 -153.834 -20.167 -207.501 -60.5s-80.5 -91.833 -80.5 -154.5c0 -104.667 108.333 -185.334 325 -242.001l21 -6c132.667 -34 222.834 -72.333 270.501 -115s71.5 -102 71.5 -178c0 -86.667 -35.667 -158.5 -107 -215.5s-162 -85.5 -272 -85.5
c-118 0 -212.5 30.333 -283.5 91s-111.833 145 -122.5 253z" />
    <glyph glyph-name="t" unicode="t" horiz-adv-x="498" 
d="M63 1006l0.000976562 57.001h134v291h65v-291h193v-57h-193v-770c0 -82.667 6.83301 -136.834 20.5 -162.501s38.167 -38.5 73.5 -38.5c14 0 28.667 1.16699 44 3.5s33.666 6.5 54.999 12.5v-59c-22 -5.33301 -42 -9.5 -60 -12.5s-34.333 -4.5 -49 -4.5
c-53.333 0 -91.5 14.833 -114.5 44.5s-34.5 79.167 -34.5 148.5v838h-134z" />
    <glyph glyph-name="u" unicode="u" 
d="M137 352v711h64v-690c0 -120.667 23.5 -207.834 70.5 -261.501s123.167 -80.5 228.5 -80.5c60 0 112.833 8.83301 158.5 26.5s84.167 44.167 115.5 79.5s53.5 76.5 66.5 123.5s19.5 122.5 19.5 226.5v60v516h64v-1063h-64v166
c-32.667 -63.333 -79.5 -111.666 -140.5 -144.999s-133.5 -50 -217.5 -50c-122.667 0 -214.167 31.5 -274.5 94.5s-90.5 158.5 -90.5 286.5z" />
    <glyph glyph-name="v" unicode="v" horiz-adv-x="909" 
d="M16 1063h68l365 -987l378 987h68l-410 -1063h-73z" />
    <glyph glyph-name="w" unicode="w" horiz-adv-x="1370" 
d="M27 1063h67l303 -963l254 963h60l260 -963l307 963h65l-339 -1063h-66l-258 948l-250 -948h-65z" />
    <glyph glyph-name="x" unicode="x" horiz-adv-x="840" 
d="M-10 0l389 549l-373 514h78l336 -461l328 461h75l-366 -514l393 -549h-76l-356 498l-352 -498h-76z" />
    <glyph glyph-name="y" unicode="y" horiz-adv-x="895" 
d="M12 1063l63.9971 0.000976562l366 -987l367 987h70l-463 -1225c-39.333 -102.667 -76.333 -172.334 -111 -209.001s-77.667 -55 -129 -55c-16.667 0 -30.834 1 -42.501 3s-22.167 5 -31.5 9v62c14.667 -4 28.334 -7.16699 41.001 -9.5s24.334 -3.5 35.001 -3.5
c32.667 0 59.834 9.5 81.501 28.5s40.834 50.5 57.501 94.5l91 234z" />
    <glyph glyph-name="z" unicode="z" horiz-adv-x="895" 
d="M35 0v76l733 923h-692v64h762v-76l-734 -924h756v-63h-825z" />
    <glyph glyph-name="braceleft" unicode="{" horiz-adv-x="1024" 
d="M180 494l1.00098 73.002c6 -0.666992 12.5 -1.16699 19.5 -1.5s17.167 -0.5 30.5 -0.5c93.333 0 159.333 21.833 198 65.5s58 118.834 58 225.501v238c0 153.333 22.833 255.5 68.5 306.5s130.834 76.5 255.501 76.5h33v-70h-37c-92.667 0 -155.5 -17.833 -188.5 -53.5
s-49.5 -109.167 -49.5 -220.5v-242c0 -118.667 -14 -202.834 -42 -252.501s-78 -85.834 -150 -108.501c72 -22 122 -57.833 150 -107.5s42 -133.834 42 -252.501v-242c0 -111.333 16.5 -184.833 49.5 -220.5s95.833 -53.5 188.5 -53.5h37v-68h-33
c-124.667 0 -209.834 25.333 -255.501 76s-68.5 152.334 -68.5 305.001v238c0 107.333 -19.5 182.666 -58.5 225.999s-106.833 65 -203.5 65c-4.66699 0 -11.834 -0.333008 -21.501 -1s-17.5 -1 -23.5 -1z" />
    <glyph glyph-name="bar" unicode="|" horiz-adv-x="1024" 
d="M475 -483v2048h74v-2048h-74z" />
    <glyph glyph-name="braceright" unicode="}" horiz-adv-x="1024" 
d="M182 -344l38.999 0.00488281c92 0 154 17.333 186 52s48 108 48 220v242c0 117.333 14.333 201.166 43 251.499s79 86.5 151 108.5c-72 22.667 -122.333 59.167 -151 109.5s-43 134.166 -43 251.499v242c0 112.667 -16.167 186.5 -48.5 221.5s-94.833 52.5 -187.5 52.5
h-37v70h33c124 0 208.667 -25.5 254 -76.5s68 -153.167 68 -306.5v-238c0 -106.667 19.333 -181.834 58 -225.501s105.334 -65.5 200.001 -65.5c13.333 0 23.5 0.166992 30.5 0.5s13.833 0.833008 20.5 1.5v-73c-6 0 -13.833 0.333008 -23.5 1s-16.834 1 -21.501 1
c-97.333 0 -165.666 -21.833 -204.999 -65.5s-59 -118.834 -59 -225.501v-238c0 -152.667 -22.667 -254.334 -68 -305.001s-130 -76 -254 -76h-33v70z" />
    <glyph glyph-name="asciitilde" unicode="~" horiz-adv-x="1706" 
d="M178 489l0.00195312 74.0029c68 49.333 134.167 86.333 198.5 111s127.166 37 188.499 37c29.333 0 60 -3.16699 92 -9.5s65.667 -15.5 101 -27.5c20 -6.66699 49 -17.334 87 -32.001c131.333 -48.667 230.666 -73 297.999 -73c54.667 0 112.5 12.667 173.5 38
s132.167 66 213.5 122v-72c-70 -48.667 -137.167 -85.334 -201.5 -110.001s-126.166 -37 -185.499 -37c-40 0 -80.333 4.33301 -121 13s-96.334 26 -167.001 52l-38 14c-110.667 41.333 -194.667 62 -252 62c-54 0 -111 -12.333 -171 -37s-132 -66.334 -216 -125.001z" />
    <glyph glyph-name="uni0080" 
d="M-2 535l18.0029 50.999h160c-0.666992 12.667 -1.16699 26.334 -1.5 41.001s-0.5 37 -0.5 67c0 16 0.333008 33.333 1 52s1.66699 43 3 73h-172l14 51h162c17.333 186 64.166 326.167 140.499 420.5s181.166 141.5 314.499 141.5c108 0 198.167 -31.833 270.5 -95.5
s113.833 -148.167 124.5 -253.5h-69c-8 86.667 -42.667 156.167 -104 208.5s-135.333 78.5 -222 78.5c-110.667 0 -198.5 -42 -263.5 -126s-105.5 -208.667 -121.5 -374h641l-19 -51h-626c-2 -30.667 -3.16699 -54.834 -3.5 -72.501s-0.5 -34.5 -0.5 -50.5
c0 -31.333 0.166992 -54.5 0.5 -69.5s0.833008 -28.5 1.5 -40.5h553l-19 -51h-530c15.333 -170 55.5 -298.333 120.5 -385s153.833 -130 266.5 -130c94.667 0 171.667 25.5 231 76.5s93 121.167 101 210.5h69c-11.333 -109.333 -52.333 -194.666 -123 -255.999
s-163.334 -92 -278.001 -92c-134 0 -239.667 48.5 -317 145.5s-124 240.5 -140 430.5h-182z" />
    <glyph glyph-name="uni0080" unicode="&#x20ac;" 
d="M-2 535l18.0029 50.999h160c-0.666992 12.667 -1.16699 26.334 -1.5 41.001s-0.5 37 -0.5 67c0 16 0.333008 33.333 1 52s1.66699 43 3 73h-172l14 51h162c17.333 186 64.166 326.167 140.499 420.5s181.166 141.5 314.499 141.5c108 0 198.167 -31.833 270.5 -95.5
s113.833 -148.167 124.5 -253.5h-69c-8 86.667 -42.667 156.167 -104 208.5s-135.333 78.5 -222 78.5c-110.667 0 -198.5 -42 -263.5 -126s-105.5 -208.667 -121.5 -374h641l-19 -51h-626c-2 -30.667 -3.16699 -54.834 -3.5 -72.501s-0.5 -34.5 -0.5 -50.5
c0 -31.333 0.166992 -54.5 0.5 -69.5s0.833008 -28.5 1.5 -40.5h553l-19 -51h-530c15.333 -170 55.5 -298.333 120.5 -385s153.833 -130 266.5 -130c94.667 0 171.667 25.5 231 76.5s93 121.167 101 210.5h69c-11.333 -109.333 -52.333 -194.666 -123 -255.999
s-163.334 -92 -278.001 -92c-134 0 -239.667 48.5 -317 145.5s-124 240.5 -140 430.5h-182z" />
    <glyph glyph-name="uni00A0" unicode="&#xa0;" 
 />
    <glyph glyph-name="exclamdown" unicode="&#xa1;" horiz-adv-x="629" 
d="M274 1290v180h70v-180h-70zM276 0l9 1102h49l18 -1102h-76z" />
    <glyph glyph-name="cent" unicode="&#xa2;" 
d="M82 518c0 176 42.832 315.333 128.499 418s201.834 154 348.501 154c20 0 40.333 -1.5 61 -4.5s41.334 -7.16699 62.001 -12.5l82 240h61l-86 -258c62.667 -24.667 113 -62.5 151 -113.5s61.667 -112.167 71 -183.5h-64c-13.333 60 -34.666 110 -63.999 150
s-66.666 69 -111.999 87l-313 -936c28 -8.66699 54.167 -15.167 78.5 -19.5s47.166 -6.5 68.499 -6.5c93.333 0 173.166 29 239.499 87s104.5 132 114.5 222h66c-12.667 -110.667 -57.5 -200.5 -134.5 -269.5s-170.833 -103.5 -281.5 -103.5c-27.333 0 -55 2 -83 6
s-57 10.333 -87 19l-96 -281h-62l103 305c-82.667 48 -145.334 114.167 -188.001 198.5s-64 184.833 -64 301.5zM151.999 539c0 -114.667 16.501 -209 49.501 -283s83.833 -130.667 152.5 -170l309 928c-16 4.66699 -33.167 8.16699 -51.5 10.5s-38.5 3.5 -60.5 3.5
c-118.667 0 -214.834 -45 -288.501 -135s-110.5 -208 -110.5 -354z" />
    <glyph glyph-name="sterling" unicode="&#xa3;" 
d="M59 670v59.001h199c-52.667 88.667 -89.667 159.667 -111 213s-32 99.666 -32 138.999c0 102.667 38.833 187.5 116.5 254.5s177.167 100.5 298.5 100.5c132.667 0 235.667 -38.333 309 -115s110.333 -184.334 111 -323.001l-63 -1c-5.33301 122 -38 215.333 -98 280
s-144 97 -252 97c-102 0 -185.333 -27.333 -250 -82s-97 -124.334 -97 -209.001c0 -38 11.167 -83.5 33.5 -136.5s61.166 -125.5 116.499 -217.5h293v-59h-266c12 -32 21 -63.167 27 -93.5s9 -60.166 9 -89.499c0 -67.333 -15.333 -132.666 -46 -195.999
s-78 -126.333 -142 -189c28.667 8 53.5 13.833 74.5 17.5s39.167 5.5 54.5 5.5c44.667 0 106.334 -15 185.001 -45s135 -45 169 -45c48 0 95.667 11.667 143 35s88 55.333 122 96l43 -51c-50 -50 -100 -87.167 -150 -111.5s-102 -36.5 -156 -36.5c-44.667 0 -109 15 -193 45
s-147.333 45 -190 45c-30 0 -61.833 -5.16699 -95.5 -15.5s-69.167 -26.166 -106.5 -47.499l-47 61c86 59.333 151.5 125.166 196.5 197.499s67.5 147.833 67.5 226.5c0 28 -3.5 57.833 -10.5 89.5s-17.167 65.5 -30.5 101.5h-232z" />
    <glyph glyph-name="currency" unicode="&#xa4;" 
d="M-2 535l18.0029 50.999h160c-0.666992 12.667 -1.16699 26.334 -1.5 41.001s-0.5 37 -0.5 67c0 16 0.333008 33.333 1 52s1.66699 43 3 73h-172l14 51h162c17.333 186 64.166 326.167 140.499 420.5s181.166 141.5 314.499 141.5c108 0 198.167 -31.833 270.5 -95.5
s113.833 -148.167 124.5 -253.5h-69c-8 86.667 -42.667 156.167 -104 208.5s-135.333 78.5 -222 78.5c-110.667 0 -198.5 -42 -263.5 -126s-105.5 -208.667 -121.5 -374h641l-19 -51h-626c-2 -30.667 -3.16699 -54.834 -3.5 -72.501s-0.5 -34.5 -0.5 -50.5
c0 -31.333 0.166992 -54.5 0.5 -69.5s0.833008 -28.5 1.5 -40.5h553l-19 -51h-530c15.333 -170 55.5 -298.333 120.5 -385s153.833 -130 266.5 -130c94.667 0 171.667 25.5 231 76.5s93 121.167 101 210.5h69c-11.333 -109.333 -52.333 -194.666 -123 -255.999
s-163.334 -92 -278.001 -92c-134 0 -239.667 48.5 -317 145.5s-124 240.5 -140 430.5h-182z" />
    <glyph glyph-name="yen" unicode="&#xa5;" horiz-adv-x="1085" 
d="M2 606v51h481l-102 158h-379v51h342l-342 527h76l467 -717l461 717h75l-340 -527h340v-51h-376l-103 -158h479v-51h-506v-606h-67v606h-506z" />
    <glyph glyph-name="brokenbar" unicode="&#xa6;" horiz-adv-x="1024" 
d="M475 -350v758h74v-758h-74zM475 674v758h74v-758h-74z" />
    <glyph glyph-name="section" unicode="&#xa7;" horiz-adv-x="1024" 
d="M113 725c0 62.667 16.499 118.337 49.499 167.004s81.167 88.667 144.5 120c-34 28 -59.167 58.833 -75.5 92.5s-24.5 71.834 -24.5 114.501c0 83.333 28.5 151.833 85.5 205.5s130.833 80.5 221.5 80.5c102 0 180.333 -29.167 235 -87.5s82 -141.833 82 -250.5h-63
c0 89.333 -21.167 157.833 -63.5 205.5s-103.166 71.5 -182.499 71.5c-74 0 -134.167 -20.833 -180.5 -62.5s-69.5 -95.167 -69.5 -160.5c0 -52 15.5 -95.833 46.5 -131.5s86.5 -71.834 166.5 -108.501l158 -74c91.333 -42 158.5 -88.5 201.5 -139.5
s64.5 -109.5 64.5 -175.5c0 -60.667 -16.167 -114.667 -48.5 -162s-81.5 -89 -147.5 -125c34.667 -25.333 61 -56.833 79 -94.5s27 -79.834 27 -126.501c0 -84.667 -29.833 -153.334 -89.5 -206.001s-137.5 -79 -233.5 -79c-103.333 0 -183.5 26.667 -240.5 80
s-85.5 127.666 -85.5 222.999c0 12 0.166992 21 0.5 27s0.833008 11.333 1.5 16h59v-26c0 -82.667 22.5 -146.667 67.5 -192s108.5 -68 190.5 -68c83.333 0 149 20.833 197 62.5s72 98.5 72 170.5c0 49.333 -13 91.333 -39 126s-68.333 66.334 -127 95.001l-268 131
c-71.333 35.333 -124.333 76.166 -159 122.499s-52 99.166 -52 158.499zM175.999 733.003c0 -49.333 13.834 -93.667 41.501 -133s68.5 -72 122.5 -98l328 -160c63.333 36.667 109.166 73.834 137.499 111.501s42.5 80.5 42.5 128.5c0 55.333 -17.5 104.166 -52.5 146.499
s-89.167 80.833 -162.5 115.5l-271 125c-62 -24.667 -108.5 -56.5 -139.5 -95.5s-46.5 -85.833 -46.5 -140.5z" />
    <glyph glyph-name="dieresis" unicode="&#xa8;" horiz-adv-x="1024" 
d="M307 1282v115h92v-115h-92zM623 1282v115h94v-115h-94z" />
    <glyph glyph-name="copyright" unicode="&#xa9;" horiz-adv-x="1706" 
d="M125 719c0 96 18.5 188.333 55.5 277s90.167 168.334 159.5 239.001c68 69.333 145.333 121.833 232 157.5s180 53.5 280 53.5s193.833 -18 281.5 -54s166.5 -89 236.5 -159c68.667 -68.667 121 -147 157 -235s54 -181 54 -279c0 -100 -17.833 -193.5 -53.5 -280.5
s-87.5 -164.167 -155.5 -231.5c-70.667 -70 -151 -123.667 -241 -161s-183 -56 -279 -56s-188 18.333 -276 55s-166.667 90 -236 160c-69.333 69.333 -122.5 148.166 -159.5 236.499s-55.5 180.833 -55.5 277.5zM188 719c0 -87.333 17.001 -171.17 51.001 -251.503
s82.667 -152.166 146 -215.499c64 -64 136.167 -113.167 216.5 -147.5s163.833 -51.5 250.5 -51.5s170.667 17.333 252 52s155 84.334 221 149.001c62.667 60.667 110.5 130.667 143.5 210s49.5 164.333 49.5 255c0 90 -16.5 175 -49.5 255s-80.833 151.333 -143.5 214
c-64 63.333 -136 111.5 -216 144.5s-165.667 49.5 -257 49.5c-90.667 0 -175.334 -16.167 -254.001 -48.5s-149 -80.166 -211 -143.499c-64 -64.667 -113.167 -137.667 -147.5 -219s-51.5 -165.333 -51.5 -252zM475.001 716.996c0 140 34.8359 251.167 104.503 333.5
s163.167 123.5 280.5 123.5c85.333 0 158 -23.5 218 -70.5s94.667 -107.5 104 -181.5h-80c-14.667 58 -43.834 103.5 -87.501 136.5s-97.167 49.5 -160.5 49.5c-90.667 0 -161.834 -34.5 -213.501 -103.5s-77.5 -164.833 -77.5 -287.5c0 -117.333 26.5 -210.833 79.5 -280.5
s123.5 -104.5 211.5 -104.5c67.333 0 125 19.167 173 57.5s77.667 88.833 89 151.5h74c-7.33301 -80.667 -43.333 -147 -108 -199s-143.334 -78 -236.001 -78c-112.667 0 -202.667 41 -270 123s-101 192 -101 330z" />
    <glyph glyph-name="ordfeminine" unicode="&#xaa;" horiz-adv-x="778" 
d="M53 920c0 65.333 23.8311 115.332 71.498 149.999s129.834 59.667 246.501 75l89 11c101.333 10.667 152 35.667 152 75v63c0 50.667 -18.333 89.334 -55 116.001s-90 40 -160 40c-80 0 -143 -16 -189 -48s-71 -77.333 -75 -136h-45
c3.33301 69.333 32 124.166 86 164.499s126.333 60.5 217 60.5c55.333 0 102.833 -7.33301 142.5 -22s70.167 -36 91.5 -64c12 -16.667 20.667 -35.5 26 -56.5s8 -53.5 8 -97.5v-32v-330c0 -53.333 5 -88.166 15 -104.499s28.333 -24.5 55 -24.5
c8 0 14.167 0.166992 18.5 0.5s8.5 0.5 12.5 0.5v-36c-2.66699 0 -6.66699 -0.333008 -12 -1c-15.333 -2 -25.666 -3 -30.999 -3c-37.333 0 -64.166 10.5 -80.499 31.5s-24.5 55.5 -24.5 103.5c-32 -46.667 -75.833 -82.5 -131.5 -107.5s-118.834 -37.5 -189.501 -37.5
c-71.333 0 -128.833 19 -172.5 57s-65.5 88.667 -65.5 152zM101.998 927.999c0 -55.333 17.668 -97.832 53.001 -127.499s85.333 -44.5 150 -44.5c42.667 0 84 6.33301 124 19s74.333 30 103 52c30 25.333 50.833 53.333 62.5 84s17.5 75 17.5 133v111
c-12.667 -15.333 -65.334 -28.333 -158.001 -39l-48 -6c-114 -13.333 -193.167 -33.833 -237.5 -61.5s-66.5 -67.834 -66.5 -120.501z" />
    <glyph glyph-name="guillemotleft" unicode="&#xab;" horiz-adv-x="758" 
d="M88 532l256 308h82l-250 -308l250 -323h-82zM338 532l256 308h84l-254 -308l254 -323h-84z" />
    <glyph glyph-name="logicalnot" unicode="&#xac;" horiz-adv-x="1706" 
d="M254 791v63h1198v-502h-59v439h-1139z" />
    <glyph glyph-name="uni00AD" unicode="&#xad;" horiz-adv-x="702" 
d="M78 500v57h545v-57h-545z" />
    <glyph glyph-name="registered" unicode="&#xae;" horiz-adv-x="1706" 
d="M125 719c0 96 18.5 188.333 55.5 277s90.167 168.334 159.5 239.001c68 69.333 145.333 121.833 232 157.5s180 53.5 280 53.5c99.333 0 193 -18 281 -54s167 -88.333 237 -157c68.667 -68.667 121 -147.167 157 -235.5s54 -181.833 54 -280.5
c0 -100 -17.667 -193.167 -53 -279.5s-87.333 -163.166 -156 -230.499c-71.333 -70.667 -151.833 -124.834 -241.5 -162.501s-182.5 -56.5 -278.5 -56.5s-188 18.333 -276 55s-166.667 90 -236 160c-69.333 69.333 -122.5 148.166 -159.5 236.499s-55.5 180.833 -55.5 277.5
zM188 719c0 -86.667 17.167 -170.166 51.5 -250.499s83.5 -152.5 147.5 -216.5s136 -113.167 216 -147.5s163 -51.5 249 -51.5c87.333 0 172 17.333 254 52s155.667 84.334 221 149.001c62.667 61.333 110.167 131.333 142.5 210s48.5 163.667 48.5 255
c0 88.667 -16.667 173.167 -50 253.5s-81.666 152.166 -144.999 215.499c-64.667 64 -136.834 112.333 -216.501 145s-164.5 49 -254.5 49c-90.667 0 -175.667 -16.333 -255 -49s-150 -80.334 -212 -143.001c-63.333 -64.667 -112 -137.5 -146 -218.5
s-51 -165.167 -51 -252.5zM573 305.001v850.001h304c120 0 207.667 -18.833 263 -56.5s83 -97.167 83 -178.5c0 -58.667 -19 -107.834 -57 -147.501s-88 -63.167 -150 -70.5l192 -397h-104l-182 383h-260v-383h-89zM662 760.002h190c103.333 0 173.833 12.167 211.5 36.5
s56.5 67.5 56.5 129.5c0 54 -21.333 93.667 -64 119s-110 38 -202 38h-192v-323z" />
    <glyph glyph-name="macron" unicode="&#xaf;" horiz-adv-x="1024" 
d="M289 1305v71h446v-71h-446z" />
    <glyph glyph-name="degree" unicode="&#xb0;" horiz-adv-x="674" 
d="M68 1178c0 74.667 26.333 138.333 79 191s116.334 79 191.001 79c73.333 0 136.333 -26.5 189 -79.5s79 -116.5 79 -190.5s-26.333 -137.333 -79 -190s-116.334 -79 -191.001 -79c-75.333 0 -138.833 26 -190.5 78s-77.5 115.667 -77.5 191zM119 1178
c0 -61.333 21.333 -113.333 64 -156s94.334 -64 155.001 -64s112 21.333 154 64s63 94.667 63 156c0 60.667 -21.167 112.334 -63.5 155.001s-93.5 64 -153.5 64c-60.667 0 -112.334 -21.333 -155.001 -64s-64 -94.334 -64 -155.001z" />
    <glyph glyph-name="plusminus" unicode="&#xb1;" horiz-adv-x="1706" 
d="M254 70v63h1198v-63h-1198zM254 731v64h569v356h62v-356h567v-64h-567v-356h-62v356h-569z" />
    <glyph glyph-name="uni00B2" unicode="&#xb2;" horiz-adv-x="705" 
d="M68 557l-0.000976562 58.998c0 33.333 2.5 59.333 7.5 78s13.167 36.334 24.5 53.001c16 22.667 40.5 47 73.5 73s72.833 52.333 119.5 79c18.667 10.667 45.334 25 80.001 43c74 38.667 122.333 69.334 145 92.001c23.333 21.333 40.166 43.5 50.499 66.5
s15.5 50.167 15.5 81.5c0 59.333 -19.5 106.5 -58.5 141.5s-91.167 52.5 -156.5 52.5c-69.333 0 -124.666 -19 -165.999 -57s-62 -88.667 -62 -152v-12h-47v10c0 76.667 24.833 137.5 74.5 182.5s116.5 67.5 200.5 67.5c78 0 141.5 -21.167 190.5 -63.5
s73.5 -97.5 73.5 -165.5c0 -55.333 -15 -102.333 -45 -141s-92.333 -83.334 -187 -134.001c-124 -68 -203.667 -120.667 -239 -158s-53 -78.666 -53 -123.999c0 -9.33301 0.333008 -16.5 1 -21.5s1.66699 -9.5 3 -13.5h514v-37h-559z" />
    <glyph glyph-name="uni00B3" unicode="&#xb3;" horiz-adv-x="705" 
d="M61 805v6.00195h48v-4c0 -74 20.5 -131.5 61.5 -172.5s98.167 -61.5 171.5 -61.5c74.667 0 135.667 19.667 183 59s71 90 71 152c0 66 -23.333 115 -70 147s-118.334 48 -215.001 48h-26v35h30c80.667 0 142.834 16.5 186.501 49.5s65.5 79.833 65.5 140.5
c0 54 -18.833 96.167 -56.5 126.5s-90.5 45.5 -158.5 45.5c-68.667 0 -122.667 -18.333 -162 -55s-59 -87.334 -59 -152.001v-6h-41v4c0 78.667 23.667 139.334 71 182.001s114.333 64 201 64c76 0 137 -19.167 183 -57.5s69 -88.833 69 -151.5
c0 -48.667 -13.833 -91.334 -41.5 -128.001s-65.5 -62.334 -113.5 -77.001c57.333 -10.667 102.333 -34.667 135 -72s49 -83.666 49 -138.999c0 -74.667 -27.667 -135.5 -83 -182.5s-127.333 -70.5 -216 -70.5s-158 23.667 -208 71s-75 113.666 -75 198.999z" />
    <glyph glyph-name="acute" unicode="&#xb4;" horiz-adv-x="1024" 
d="M397 1196l209 328h109l-254 -328h-64z" />
    <glyph glyph-name="uni00B5" unicode="&#xb5;" horiz-adv-x="1040" 
d="M-115 -426l315.998 1483h67l-123 -584c-7.33301 -36 -12.833 -67.5 -16.5 -94.5s-5.5 -50.833 -5.5 -71.5c0 -87.333 22.333 -154.833 67 -202.5s107.667 -71.5 189 -71.5c88.667 0 168.334 41.5 239.001 124.5s121.334 195.833 152.001 338.5l119 561h69l-192 -887
c-2 -10 -3.5 -20.167 -4.5 -30.5s-1.5 -19.833 -1.5 -28.5c0 -25.333 6.33301 -43.666 19 -54.999s33 -17 61 -17c9.33301 0 16.5 0.166992 21.5 0.5s9.83301 0.833008 14.5 1.5l-12 -61c-6.66699 -2 -13.5 -3.33301 -20.5 -4s-17.167 -1 -30.5 -1
c-40 0 -70.167 9.5 -90.5 28.5s-30.5 47.167 -30.5 84.5c0 8 0.833008 18.167 2.5 30.5s4.16699 27.833 7.5 46.5c-41.333 -66.667 -91 -117 -149 -151s-123.667 -51 -197 -51c-71.333 0 -131.333 18 -180 54s-80.667 86.333 -96 151l-125 -594h-70z" />
    <glyph glyph-name="paragraph" unicode="&#xb6;" horiz-adv-x="1024" 
d="M98 1130c0 104.667 36.001 189 108.001 253s168 96 288 96h432v-58h-133v-1421h-58v1421h-196v-1421h-60v782c-116.667 5.33301 -209.334 39.333 -278.001 102s-103 144.667 -103 246z" />
    <glyph glyph-name="periodcentered" unicode="&#xb7;" horiz-adv-x="532" 
d="M199 694c0 18.667 6.66699 34.667 20 48s29 20 47 20c19.333 0 35.5 -6.5 48.5 -19.5s19.5 -29.167 19.5 -48.5c0 -18 -6.66699 -33.333 -20 -46s-29.333 -19 -48 -19s-34.5 6.33301 -47.5 19s-19.5 28 -19.5 46z" />
    <glyph glyph-name="cedilla" unicode="&#xb8;" horiz-adv-x="1024" 
d="M326 -358c40 -10.667 78.668 -18.5 116.001 -23.5s73.666 -7.5 108.999 -7.5c44.667 0 79.334 9.16699 104.001 27.5s37 43.833 37 76.5c0 39.333 -13.167 68.333 -39.5 87s-67.166 28 -122.499 28c-12 0 -21.333 -0.166992 -28 -0.5s-13 -0.833008 -19 -1.5v172h41v-121
h25c67.333 0 117.666 -12.667 150.999 -38s50 -63.666 50 -114.999c0 -54.667 -17.667 -96.667 -53 -126s-85.333 -44 -150 -44c-29.333 0 -60.333 2.16699 -93 6.5s-75.334 12.166 -128.001 23.499v56z" />
    <glyph glyph-name="uni00B9" unicode="&#xb9;" horiz-adv-x="705" 
d="M135 1200l-0.000976562 36c69.333 2 123.833 15.833 163.5 41.5s63.834 63.5 72.501 113.5h45v-834h-45v729c-28.667 -29.333 -61.167 -51 -97.5 -65s-78.5 -21 -126.5 -21h-12z" />
    <glyph glyph-name="ordmasculine" unicode="&#xba;" horiz-adv-x="838" 
d="M68 1100c0 120.667 31.167 215.667 93.5 285s147.833 104 256.5 104s194.5 -34.833 257.5 -104.5s94.5 -164.5 94.5 -284.5c0 -120.667 -31.5 -216 -94.5 -286s-148.833 -105 -257.5 -105s-194.167 34.833 -256.5 104.5s-93.5 165.167 -93.5 286.5zM117 1100
c0 -108.667 27.002 -194.167 81.002 -256.5s127.333 -93.5 220 -93.5c93.333 0 167.166 31.167 221.499 93.5s81.5 147.833 81.5 256.5c0 107.333 -27.333 192.166 -82 254.499s-128.334 93.5 -221.001 93.5s-166 -31.167 -220 -93.5s-81 -147.166 -81 -254.499z" />
    <glyph glyph-name="guillemotright" unicode="&#xbb;" horiz-adv-x="758" 
d="M80 209l254 305l-254 326h84l256 -326l-256 -305h-84zM332 209l250 305l-250 326h82l256 -326l-256 -305h-82z" />
    <glyph glyph-name="onequarter" unicode="&#xbc;" horiz-adv-x="1686" 
d="M131 1212l-0.000976562 35c65.333 1.33301 116.833 14 154.5 38s60.5 59.333 68.5 106h43v-779h-43v680c-27.333 -27.333 -58.166 -47.5 -92.499 -60.5s-74.5 -19.5 -120.5 -19.5h-10zM327.999 -33l952 1465h78l-952 -1465h-78zM1075 207v37l414 534h39v-536h98v-35h-98
v-207h-41v207h-412zM1118 242h369v473z" />
    <glyph glyph-name="onehalf" unicode="&#xbd;" horiz-adv-x="1686" 
d="M131 1212l-0.000976562 35c65.333 1.33301 116.833 14 154.5 38s60.5 59.333 68.5 106h43v-779h-43v680c-27.333 -27.333 -58.166 -47.5 -92.499 -60.5s-74.5 -19.5 -120.5 -19.5h-10zM327.999 -33l952 1465h78l-952 -1465h-78zM1079 0l0.00292969 54.998
c0 34.667 2.5 60.167 7.5 76.5s12.833 31.833 23.5 46.5c13.333 19.333 35.333 40.833 66 64.5s70 49.167 118 76.5c18.667 10.667 45.667 25 81 43c68 34.667 112.667 62 134 82c22 20.667 37.833 41.834 47.5 63.501s14.5 46.5 14.5 74.5
c0 55.333 -18.667 99.833 -56 133.5s-87 50.5 -149 50.5c-66 0 -118.667 -17.833 -158 -53.5s-59 -83.5 -59 -143.5v-12h-45v10c0 72 23.667 129 71 171s111 63 191 63c75.333 0 136.166 -19.833 182.499 -59.5s69.5 -91.5 69.5 -155.5c0 -51.333 -14.333 -95 -43 -131
s-88 -77.667 -178 -125c-116.667 -62 -192.334 -110.5 -227.001 -145.5s-52 -73.833 -52 -116.5c0 -9.33301 0.166992 -16.166 0.5 -20.499s1.16602 -8.5 2.49902 -12.5h491v-35h-533z" />
    <glyph glyph-name="threequarters" unicode="&#xbe;" horiz-adv-x="1686" 
d="M59 844l0.000976562 4.00293h43v-2c0 -68.667 19.667 -122 59 -160s94.333 -57 165 -57c72 0 130.5 18.167 175.5 54.5s67.5 83.5 67.5 141.5c0 60.667 -22.333 106 -67 136s-112.334 45 -203.001 45h-27v32h29c76.667 0 136.167 15.667 178.5 47s63.5 75.333 63.5 132
c0 50 -18.5 89.333 -55.5 118s-87.5 43 -151.5 43c-65.333 0 -116.833 -17.333 -154.5 -52s-56.5 -82 -56.5 -142v-6h-39v4c0 72.667 22.667 129 68 169s109.333 60 192 60c72.667 0 131.167 -17.833 175.5 -53.5s66.5 -82.5 66.5 -140.5
c0 -46.667 -13.5 -87.167 -40.5 -121.5s-63.5 -57.5 -109.5 -69.5c55.333 -11.333 98.5 -34.333 129.5 -69s46.5 -77.334 46.5 -128.001c0 -70.667 -26.333 -127.834 -79 -171.501s-121.667 -65.5 -207 -65.5c-84.667 0 -150.667 22.167 -198 66.5s-71 106.166 -71 185.499z
M328.001 -32.9971l952 1465h78l-952 -1465h-78zM1075 207.003v37l414 534h39v-536h98v-35h-98v-207h-41v207h-412zM1118 242.003h369v473z" />
    <glyph glyph-name="questiondown" unicode="&#xbf;" horiz-adv-x="948" 
d="M61 326c0 40 5.6709 78.332 17.0039 114.999s28.333 71.334 51 104.001c34.667 49.333 86.334 104.333 155.001 165c22.667 20 38.667 34.667 48 44c39.333 39.333 66.166 70.666 80.499 93.999s24.166 48 29.499 74c6 26 10.833 55.167 14.5 87.5s6.5 66.5 8.5 102.5h65
c-0.666992 -38.667 -2.83398 -75 -6.50098 -109s-8.83398 -66.667 -15.501 -98c-6.66699 -30 -18.334 -58.667 -35.001 -86s-48.667 -65.333 -96 -114c-10.667 -11.333 -28.667 -28.333 -54 -51c-65.333 -59.333 -113.666 -111.333 -144.999 -156
c-16 -23.333 -27.833 -48.5 -35.5 -75.5s-11.5 -57.167 -11.5 -90.5c0 -95.333 29.667 -168.666 89 -219.999s143.666 -77 252.999 -77s194 33 254 99s90 159.333 90 280v6h68c0 -141.333 -37.333 -251.5 -112 -330.5s-178.667 -118.5 -312 -118.5
c-120.667 0 -217.5 32.333 -290.5 97s-109.5 150.667 -109.5 258zM457.004 1298v177h80v-177h-80z" />
    <glyph glyph-name="Agrave" unicode="&#xc0;" horiz-adv-x="1176" 
d="M-12 0l569 1473h78l559 -1473h-68l-190 502h-686l-193 -502h-69zM274 563h637l-315 830zM407 1944h109l209 -328h-64z" />
    <glyph glyph-name="Aacute" unicode="&#xc1;" horiz-adv-x="1176" 
d="M-12 0l569 1473h78l559 -1473h-68l-190 502h-686l-193 -502h-69zM274 563h637l-315 830zM495 1616l209 328h109l-254 -328h-64z" />
    <glyph glyph-name="Acircumflex" unicode="&#xc2;" horiz-adv-x="1176" 
d="M-12 0l569 1473h78l559 -1473h-68l-190 502h-686l-193 -502h-69zM274 563h637l-315 830zM356 1616l205 328h98l203 -328h-62l-190 270l-190 -270h-64z" />
    <glyph glyph-name="Atilde" unicode="&#xc3;" horiz-adv-x="1176" 
d="M-12 0l569 1473h78l559 -1473h-68l-190 502h-686l-193 -502h-69zM274 563h637l-315 830zM344 1682c14 48 33.5 83.501 58.5 106.501s56.5 34.5 94.5 34.5c10 0 26.333 -2.33301 49 -7c3.33301 -0.666992 5.66602 -1 6.99902 -1l114 -27
c14 -3.33301 25.833 -5.83301 35.5 -7.5s17.834 -2.5 24.501 -2.5c21.333 0 39.333 5.66699 54 17s27.334 28.666 38.001 51.999h57c-18 -50 -38.833 -86 -62.5 -108s-53.834 -33 -90.501 -33c-9.33301 0 -19.833 0.833008 -31.5 2.5s-23.5 4.16699 -35.5 7.5l-114 27
c-8 2 -16.167 3.5 -24.5 4.5s-17.166 1.5 -26.499 1.5c-18.667 0 -35.334 -5.16699 -50.001 -15.5s-28.667 -27.5 -42 -51.5h-55z" />
    <glyph glyph-name="Adieresis" unicode="&#xc4;" horiz-adv-x="1176" 
d="M-12 0l569 1473h78l559 -1473h-68l-190 502h-686l-193 -502h-69zM274 563h637l-315 830zM405 1702v115h92v-115h-92zM721 1702v115h94v-115h-94z" />
    <glyph glyph-name="Aring" unicode="&#xc5;" horiz-adv-x="1176" 
d="M-12 0l569 1473h78l559 -1473h-68l-190 502h-686l-193 -502h-69zM274 563h637l-315 830zM371 1747c0 62.667 21.833 115.833 65.5 159.5s96.834 65.5 159.501 65.5c63.333 0 116.333 -21.5 159 -64.5s64 -96.5 64 -160.5c0 -62.667 -21.5 -115.5 -64.5 -158.5
s-95.833 -64.5 -158.5 -64.5s-115.834 21.667 -159.501 65s-65.5 96 -65.5 158zM428 1749c0 -46.667 16.332 -86 48.999 -118s72.334 -48 119.001 -48c47.333 0 86.833 15.833 118.5 47.5s47.5 71.167 47.5 118.5s-15.833 86.833 -47.5 118.5s-71.167 47.5 -118.5 47.5
c-46 0 -85.5 -16.167 -118.5 -48.5s-49.5 -71.5 -49.5 -117.5z" />
    <glyph glyph-name="AE" unicode="&#xc6;" horiz-adv-x="1946" 
d="M-25 0l678 1473h1217v-62h-826v-614h756v-62h-756v-672h848v-63h-915v494h-701l-227 -494h-74zM305 555h672v856h-279z" />
    <glyph glyph-name="Ccedilla" unicode="&#xc7;" horiz-adv-x="1395" 
d="M104 733c0 242.667 55.1689 431.999 165.502 567.999s263.5 204 459.5 204c150 0 276.167 -42.5 378.5 -127.5s160.5 -196.167 174.5 -333.5h-70c-20 126.667 -73.333 225 -160 295s-198.334 105 -335.001 105c-165.333 0 -296.833 -63.667 -394.5 -191
s-146.5 -300.666 -146.5 -519.999s47.5 -391.5 142.5 -516.5s224.5 -187.5 388.5 -187.5c150 0 271 41.167 363 123.5s141.667 193.833 149 334.5h67c-9.33301 -158.667 -65.333 -284.667 -168 -378s-236.334 -140 -401.001 -140c-192.667 0 -343 67.167 -451 201.5
s-162 321.833 -162 562.5zM535.002 -358.001c40 -10.667 78.668 -18.5 116.001 -23.5s73.666 -7.5 108.999 -7.5c44.667 0 79.334 9.16699 104.001 27.5s37 43.833 37 76.5c0 39.333 -13.167 68.333 -39.5 87s-67.166 28 -122.499 28c-12 0 -21.333 -0.166992 -28 -0.5
s-13 -0.833008 -19 -1.5v172h41v-121h25c67.333 0 117.666 -12.667 150.999 -38s50 -63.666 50 -114.999c0 -54.667 -17.667 -96.667 -53 -126s-85.333 -44 -150 -44c-29.333 0 -60.333 2.16699 -93 6.5s-75.334 12.166 -128.001 23.499v56z" />
    <glyph glyph-name="Egrave" unicode="&#xc8;" horiz-adv-x="1161" 
d="M168 0v1473h899v-66h-829v-608h757v-64h-757v-669h849v-66h-919zM428 1944h109l209 -328h-64z" />
    <glyph glyph-name="Eacute" unicode="&#xc9;" horiz-adv-x="1161" 
d="M168 0v1473h899v-66h-829v-608h757v-64h-757v-669h849v-66h-919zM516 1616l209 328h109l-254 -328h-64z" />
    <glyph glyph-name="Ecircumflex" unicode="&#xca;" horiz-adv-x="1161" 
d="M168 0v1473h899v-66h-829v-608h757v-64h-757v-669h849v-66h-919zM377 1616l205 328h98l203 -328h-62l-190 270l-190 -270h-64z" />
    <glyph glyph-name="Edieresis" unicode="&#xcb;" horiz-adv-x="1161" 
d="M168 0v1473h899v-66h-829v-608h757v-64h-757v-669h849v-66h-919zM426 1702v115h92v-115h-92zM742 1702v115h94v-115h-94z" />
    <glyph glyph-name="Igrave" unicode="&#xcc;" horiz-adv-x="424" 
d="M10 1944h109l209 -328h-64zM178 0v1473h68v-1473h-68z" />
    <glyph glyph-name="Iacute" unicode="&#xcd;" horiz-adv-x="424" 
d="M98 1616l209 328h109l-254 -328h-64zM178 0v1473h68v-1473h-68z" />
    <glyph glyph-name="Icircumflex" unicode="&#xce;" horiz-adv-x="424" 
d="M-41 1616l205 328h98l203 -328h-62l-190 270l-190 -270h-64zM178 0v1473h68v-1473h-68z" />
    <glyph glyph-name="Idieresis" unicode="&#xcf;" horiz-adv-x="424" 
d="M8 1702v115h92v-115h-92zM178 0v1473h68v-1473h-68zM324 1702v115h94v-115h-94z" />
    <glyph glyph-name="Eth" unicode="&#xd0;" horiz-adv-x="1411" 
d="M0 762l0.000976562 54.9971h168v656h338c124 0 221.167 -5.66699 291.5 -17s130.833 -29.666 181.5 -54.999c106.667 -52.667 187.667 -135.5 243 -248.5s83 -252.167 83 -417.5c0 -166 -27.833 -305.667 -83.5 -419s-136.5 -194.666 -242.5 -243.999
c-52.667 -25.333 -115.834 -43.666 -189.501 -54.999s-168.167 -17 -283.5 -17h-338v762h-168zM238.001 60.9971h284.001c110.667 0 199 5.83301 265 17.5s124 30.5 174 56.5c88 46.667 155.333 121.334 202 224.001s70 228 70 376c0 124.667 -16.333 232.667 -49 324
s-81.334 165.666 -146.001 222.999c-51.333 46 -114.333 78.667 -189 98s-183.667 29 -327 29h-284v-592h497v-55h-497v-701z" />
    <glyph glyph-name="Ntilde" unicode="&#xd1;" horiz-adv-x="1397" 
d="M168 0v1473h70l923 -1356v1356h68v-1473h-68l-925 1354v-1354h-68zM432 1682c14 48 33.5 83.501 58.5 106.501s56.5 34.5 94.5 34.5c10 0 26.333 -2.33301 49 -7c3.33301 -0.666992 5.66602 -1 6.99902 -1l114 -27c14 -3.33301 25.833 -5.83301 35.5 -7.5
s17.834 -2.5 24.501 -2.5c21.333 0 39.333 5.66699 54 17s27.334 28.666 38.001 51.999h57c-18 -50 -38.833 -86 -62.5 -108s-53.834 -33 -90.501 -33c-9.33301 0 -19.833 0.833008 -31.5 2.5s-23.5 4.16699 -35.5 7.5l-114 27c-8 2 -16.167 3.5 -24.5 4.5
s-17.166 1.5 -26.499 1.5c-18.667 0 -35.334 -5.16699 -50.001 -15.5s-28.667 -27.5 -42 -51.5h-55z" />
    <glyph glyph-name="Ograve" unicode="&#xd2;" horiz-adv-x="1518" 
d="M106 735c0 240 58 428.335 174 565.002s275.333 205 478 205s362.167 -68.5 478.5 -205.5s174.5 -325.167 174.5 -564.5c0 -238.667 -58 -426.334 -174 -563.001s-275.667 -205 -479 -205c-202.667 0 -362 68.167 -478 204.5s-174 324.166 -174 563.499zM178 735.002
c0 -220 51.333 -392.667 154 -518s244.667 -188 426 -188c180.667 0 322.667 62.667 426 188s155 298 155 518c0 220.667 -51.667 394 -155 520s-245.333 189 -426 189s-322.5 -62.833 -425.5 -188.5s-154.5 -299.167 -154.5 -520.5zM557 1944h109l209 -328h-64z" />
    <glyph glyph-name="Oacute" unicode="&#xd3;" horiz-adv-x="1518" 
d="M106 735c0 240 58 428.335 174 565.002s275.333 205 478 205s362.167 -68.5 478.5 -205.5s174.5 -325.167 174.5 -564.5c0 -238.667 -58 -426.334 -174 -563.001s-275.667 -205 -479 -205c-202.667 0 -362 68.167 -478 204.5s-174 324.166 -174 563.499zM178 735.002
c0 -220 51.333 -392.667 154 -518s244.667 -188 426 -188c180.667 0 322.667 62.667 426 188s155 298 155 518c0 220.667 -51.667 394 -155 520s-245.333 189 -426 189s-322.5 -62.833 -425.5 -188.5s-154.5 -299.167 -154.5 -520.5zM645 1616l209 328h109l-254 -328h-64z
" />
    <glyph glyph-name="Ocircumflex" unicode="&#xd4;" horiz-adv-x="1518" 
d="M106 735c0 240 58 428.335 174 565.002s275.333 205 478 205s362.167 -68.5 478.5 -205.5s174.5 -325.167 174.5 -564.5c0 -238.667 -58 -426.334 -174 -563.001s-275.667 -205 -479 -205c-202.667 0 -362 68.167 -478 204.5s-174 324.166 -174 563.499zM178 735.002
c0 -220 51.333 -392.667 154 -518s244.667 -188 426 -188c180.667 0 322.667 62.667 426 188s155 298 155 518c0 220.667 -51.667 394 -155 520s-245.333 189 -426 189s-322.5 -62.833 -425.5 -188.5s-154.5 -299.167 -154.5 -520.5zM506 1616l205 328h98l203 -328h-62
l-190 270l-190 -270h-64z" />
    <glyph glyph-name="Otilde" unicode="&#xd5;" horiz-adv-x="1518" 
d="M106 735c0 240 58 428.335 174 565.002s275.333 205 478 205s362.167 -68.5 478.5 -205.5s174.5 -325.167 174.5 -564.5c0 -238.667 -58 -426.334 -174 -563.001s-275.667 -205 -479 -205c-202.667 0 -362 68.167 -478 204.5s-174 324.166 -174 563.499zM178 735.002
c0 -220 51.333 -392.667 154 -518s244.667 -188 426 -188c180.667 0 322.667 62.667 426 188s155 298 155 518c0 220.667 -51.667 394 -155 520s-245.333 189 -426 189s-322.5 -62.833 -425.5 -188.5s-154.5 -299.167 -154.5 -520.5zM494 1682
c14 48 33.5 83.501 58.5 106.501s56.5 34.5 94.5 34.5c10 0 26.333 -2.33301 49 -7c3.33301 -0.666992 5.66602 -1 6.99902 -1l114 -27c14 -3.33301 25.833 -5.83301 35.5 -7.5s17.834 -2.5 24.501 -2.5c21.333 0 39.333 5.66699 54 17s27.334 28.666 38.001 51.999h57
c-18 -50 -38.833 -86 -62.5 -108s-53.834 -33 -90.501 -33c-9.33301 0 -19.833 0.833008 -31.5 2.5s-23.5 4.16699 -35.5 7.5l-114 27c-8 2 -16.167 3.5 -24.5 4.5s-17.166 1.5 -26.499 1.5c-18.667 0 -35.334 -5.16699 -50.001 -15.5s-28.667 -27.5 -42 -51.5h-55z" />
    <glyph glyph-name="Odieresis" unicode="&#xd6;" horiz-adv-x="1518" 
d="M106 735c0 240 58 428.335 174 565.002s275.333 205 478 205s362.167 -68.5 478.5 -205.5s174.5 -325.167 174.5 -564.5c0 -238.667 -58 -426.334 -174 -563.001s-275.667 -205 -479 -205c-202.667 0 -362 68.167 -478 204.5s-174 324.166 -174 563.499zM178 735.002
c0 -220 51.333 -392.667 154 -518s244.667 -188 426 -188c180.667 0 322.667 62.667 426 188s155 298 155 518c0 220.667 -51.667 394 -155 520s-245.333 189 -426 189s-322.5 -62.833 -425.5 -188.5s-154.5 -299.167 -154.5 -520.5zM555 1702v115h92v-115h-92zM871 1702
v115h94v-115h-94z" />
    <glyph glyph-name="multiply" unicode="&#xd7;" horiz-adv-x="1706" 
d="M315 119l492 491l-492 492l45 45l492 -492l491 492l46 -45l-492 -492l492 -491l-46 -45l-491 491l-492 -491z" />
    <glyph glyph-name="Oslash" unicode="&#xd8;" horiz-adv-x="1518" 
d="M74 -20l184 218.998c-51.333 70.667 -89.5 150.167 -114.5 238.5s-37.5 187.5 -37.5 297.5c0 242 58 430.5 174 565.5s277.333 202.5 484 202.5c98.667 0 185.167 -14.5 259.5 -43.5s138.833 -73.167 193.5 -132.5l178 205l47 -45l-182 -213
c50.667 -73.333 88.5 -154.666 113.5 -243.999s37.5 -187.666 37.5 -294.999c0 -241.333 -58.5 -430 -175.5 -566s-278.833 -204 -485.5 -204c-90.667 0 -173 15.333 -247 46s-142.667 77.667 -206 141l-176 -211zM178 734.998c0 -96.667 10.668 -185.332 32.001 -265.999
s53 -152.334 95 -215.001l864 1018c-47.333 56.667 -105.333 99.167 -174 127.5s-148.334 42.5 -239.001 42.5c-180 0 -321.333 -62.667 -424 -188s-154 -298.333 -154 -519zM342.001 203c54.667 -59.333 116.331 -103.166 184.998 -131.499s146.334 -42.5 233.001 -42.5
c180.667 0 322.334 62.667 425.001 188s154 298 154 518c0 100 -11 190.167 -33 270.5s-55.333 152.166 -100 215.499z" />
    <glyph glyph-name="Ugrave" unicode="&#xd9;" horiz-adv-x="1374" 
d="M158 514l-0.000976562 959h67v-926c0 -169.333 39.333 -298 118 -386s193.667 -132 345 -132c150 0 264.667 44.333 344 133s119 217 119 385v926h68v-959c0 -170.667 -47.167 -304.5 -141.5 -401.5s-224.166 -145.5 -389.499 -145.5c-167.333 0 -297.5 48 -390.5 144
s-139.5 230.333 -139.5 403zM484.999 1944h109l209 -328h-64z" />
    <glyph glyph-name="Uacute" unicode="&#xda;" horiz-adv-x="1374" 
d="M158 514l-0.000976562 959h67v-926c0 -169.333 39.333 -298 118 -386s193.667 -132 345 -132c150 0 264.667 44.333 344 133s119 217 119 385v926h68v-959c0 -170.667 -47.167 -304.5 -141.5 -401.5s-224.166 -145.5 -389.499 -145.5c-167.333 0 -297.5 48 -390.5 144
s-139.5 230.333 -139.5 403zM572.999 1616l209 328h109l-254 -328h-64z" />
    <glyph glyph-name="Ucircumflex" unicode="&#xdb;" horiz-adv-x="1374" 
d="M158 514l-0.000976562 959h67v-926c0 -169.333 39.333 -298 118 -386s193.667 -132 345 -132c150 0 264.667 44.333 344 133s119 217 119 385v926h68v-959c0 -170.667 -47.167 -304.5 -141.5 -401.5s-224.166 -145.5 -389.499 -145.5c-167.333 0 -297.5 48 -390.5 144
s-139.5 230.333 -139.5 403zM433.999 1616l205 328h98l203 -328h-62l-190 270l-190 -270h-64z" />
    <glyph glyph-name="Udieresis" unicode="&#xdc;" horiz-adv-x="1374" 
d="M158 514l-0.000976562 959h67v-926c0 -169.333 39.333 -298 118 -386s193.667 -132 345 -132c150 0 264.667 44.333 344 133s119 217 119 385v926h68v-959c0 -170.667 -47.167 -304.5 -141.5 -401.5s-224.166 -145.5 -389.499 -145.5c-167.333 0 -297.5 48 -390.5 144
s-139.5 230.333 -139.5 403zM482.999 1702v115h92v-115h-92zM798.999 1702v115h94v-115h-94z" />
    <glyph glyph-name="Yacute" unicode="&#xdd;" horiz-adv-x="1085" 
d="M2 1473h78l465 -752l459 752h77l-506 -826v-647h-67v651zM428 1616l209 328h109l-254 -328h-64z" />
    <glyph glyph-name="Thorn" unicode="&#xde;" horiz-adv-x="1200" 
d="M168 0l0.00195312 1473h70v-295h331c185.333 0 320.166 -31.667 404.499 -95s126.5 -164.333 126.5 -303c0 -68.667 -14.833 -131.667 -44.5 -189s-70.834 -102.666 -123.501 -135.999c-37.333 -24 -83.833 -41.333 -139.5 -52s-132.167 -16 -229.5 -16h-325v-387h-70z
M238.002 448.999l280 -0.00195312c108.667 0 185 2.83301 229 8.5s81.667 15.5 113 29.5c52 23.333 93 62.5 123 117.5s45 119.167 45 192.5c0 60.667 -12.5 113.834 -37.5 159.501s-61.5 81.834 -109.5 108.501c-34 19.333 -75.833 33 -125.5 41s-128.167 12 -235.5 12
h-282v-669z" />
    <glyph glyph-name="germandbls" unicode="&#xdf;" horiz-adv-x="999" 
d="M141 0l-0.00390625 1022c0 98 4.33301 168.667 13 212s23 81.333 43 114c28.667 46 67.334 81.333 116.001 106s104.667 37 168 37c116 0 206.167 -31.833 270.5 -95.5s96.5 -152.834 96.5 -267.501c0 -77.333 -16.667 -141.333 -50 -192
s-83.666 -88.334 -150.999 -113.001c86.667 -21.333 152.667 -65.833 198 -133.5s68 -155.5 68 -263.5c0 -144.667 -34.833 -255.667 -104.5 -333s-169.834 -116 -300.501 -116c-7.33301 0 -15.833 0.333008 -25.5 1s-23.834 2 -42.501 4v65h5c27.333 -2.66699 47 -4 59 -4
c110.667 0 194.667 32.333 252 97s86 159.334 86 284.001c0 122.667 -30.667 215.167 -92 277.5s-153 93.5 -275 93.5h-35v57c4.66699 0 11.834 -0.333008 21.501 -1s16.834 -1 21.501 -1c96.667 0 169.667 23.167 219 69.5s74 114.5 74 204.5c0 98.667 -25.5 175 -76.5 229
s-123.167 81 -216.5 81c-53.333 0 -101.166 -11.667 -143.499 -35s-74.166 -55.333 -95.499 -96c-12.667 -24 -21.667 -53.667 -27 -89s-8 -99.333 -8 -192v-1022h-68z" />
    <glyph glyph-name="agrave" unicode="&#xe0;" horiz-adv-x="1038" 
d="M70 272c0 94 32.002 165.669 96.002 215.002s173.333 85 328 107c27.333 4 64.333 8.66699 111 14c140 16 210 52.333 210 109v90c0 72 -24.667 127.167 -74 165.5s-120.333 57.5 -213 57.5c-106 0 -189.5 -23 -250.5 -69s-94.167 -111 -99.5 -195h-61
c4 99.333 42.167 177.666 114.5 234.999s169.166 86 290.499 86c74 0 137.5 -10.333 190.5 -31s93.5 -51 121.5 -91c16 -23.333 27.5 -49.833 34.5 -79.5s10.5 -76.5 10.5 -140.5v-45v-473c0 -75.333 6.66699 -124.833 20 -148.5s38 -35.5 74 -35.5c6.66699 0 17.667 1 33 3
c2.66699 0.666992 4.66699 1 6 1v-53c-7.33301 -0.666992 -17.333 -1.83398 -30 -3.50098s-22 -2.5 -28 -2.5c-48.667 0 -84 15 -106 45s-33 79 -33 147c-42.667 -66 -100.834 -117 -174.501 -153s-158.167 -54 -253.5 -54c-94.667 0 -171.167 27.5 -229.5 82.5
s-87.5 127.167 -87.5 216.5zM137.002 283.002c0 -78.667 23.334 -139.333 70.001 -182s113 -64 199 -64c57.333 0 112.5 9.16699 165.5 27.5s98.833 43.833 137.5 76.5c39.333 34.667 66.833 73.5 82.5 116.5s23.5 107.5 23.5 193.5v157
c-16.667 -22.667 -91.334 -41.667 -224.001 -57c-21.333 -2.66699 -38 -4.66699 -50 -6c-151.333 -19.333 -256.5 -48.833 -315.5 -88.5s-88.5 -97.5 -88.5 -173.5zM297.003 1524h109l209 -328h-64z" />
    <glyph glyph-name="aacute" unicode="&#xe1;" horiz-adv-x="1038" 
d="M70 272c0 94 32.002 165.669 96.002 215.002s173.333 85 328 107c27.333 4 64.333 8.66699 111 14c140 16 210 52.333 210 109v90c0 72 -24.667 127.167 -74 165.5s-120.333 57.5 -213 57.5c-106 0 -189.5 -23 -250.5 -69s-94.167 -111 -99.5 -195h-61
c4 99.333 42.167 177.666 114.5 234.999s169.166 86 290.499 86c74 0 137.5 -10.333 190.5 -31s93.5 -51 121.5 -91c16 -23.333 27.5 -49.833 34.5 -79.5s10.5 -76.5 10.5 -140.5v-45v-473c0 -75.333 6.66699 -124.833 20 -148.5s38 -35.5 74 -35.5c6.66699 0 17.667 1 33 3
c2.66699 0.666992 4.66699 1 6 1v-53c-7.33301 -0.666992 -17.333 -1.83398 -30 -3.50098s-22 -2.5 -28 -2.5c-48.667 0 -84 15 -106 45s-33 79 -33 147c-42.667 -66 -100.834 -117 -174.501 -153s-158.167 -54 -253.5 -54c-94.667 0 -171.167 27.5 -229.5 82.5
s-87.5 127.167 -87.5 216.5zM137.002 283.002c0 -78.667 23.334 -139.333 70.001 -182s113 -64 199 -64c57.333 0 112.5 9.16699 165.5 27.5s98.833 43.833 137.5 76.5c39.333 34.667 66.833 73.5 82.5 116.5s23.5 107.5 23.5 193.5v157
c-16.667 -22.667 -91.334 -41.667 -224.001 -57c-21.333 -2.66699 -38 -4.66699 -50 -6c-151.333 -19.333 -256.5 -48.833 -315.5 -88.5s-88.5 -97.5 -88.5 -173.5zM385.003 1196l209 328h109l-254 -328h-64z" />
    <glyph glyph-name="acircumflex" unicode="&#xe2;" horiz-adv-x="1038" 
d="M70 272c0 94 32.002 165.669 96.002 215.002s173.333 85 328 107c27.333 4 64.333 8.66699 111 14c140 16 210 52.333 210 109v90c0 72 -24.667 127.167 -74 165.5s-120.333 57.5 -213 57.5c-106 0 -189.5 -23 -250.5 -69s-94.167 -111 -99.5 -195h-61
c4 99.333 42.167 177.666 114.5 234.999s169.166 86 290.499 86c74 0 137.5 -10.333 190.5 -31s93.5 -51 121.5 -91c16 -23.333 27.5 -49.833 34.5 -79.5s10.5 -76.5 10.5 -140.5v-45v-473c0 -75.333 6.66699 -124.833 20 -148.5s38 -35.5 74 -35.5c6.66699 0 17.667 1 33 3
c2.66699 0.666992 4.66699 1 6 1v-53c-7.33301 -0.666992 -17.333 -1.83398 -30 -3.50098s-22 -2.5 -28 -2.5c-48.667 0 -84 15 -106 45s-33 79 -33 147c-42.667 -66 -100.834 -117 -174.501 -153s-158.167 -54 -253.5 -54c-94.667 0 -171.167 27.5 -229.5 82.5
s-87.5 127.167 -87.5 216.5zM137.002 283.002c0 -78.667 23.334 -139.333 70.001 -182s113 -64 199 -64c57.333 0 112.5 9.16699 165.5 27.5s98.833 43.833 137.5 76.5c39.333 34.667 66.833 73.5 82.5 116.5s23.5 107.5 23.5 193.5v157
c-16.667 -22.667 -91.334 -41.667 -224.001 -57c-21.333 -2.66699 -38 -4.66699 -50 -6c-151.333 -19.333 -256.5 -48.833 -315.5 -88.5s-88.5 -97.5 -88.5 -173.5zM246.003 1196l205 328h98l203 -328h-62l-190 270l-190 -270h-64z" />
    <glyph glyph-name="atilde" unicode="&#xe3;" horiz-adv-x="1038" 
d="M70 272c0 94 32.002 165.669 96.002 215.002s173.333 85 328 107c27.333 4 64.333 8.66699 111 14c140 16 210 52.333 210 109v90c0 72 -24.667 127.167 -74 165.5s-120.333 57.5 -213 57.5c-106 0 -189.5 -23 -250.5 -69s-94.167 -111 -99.5 -195h-61
c4 99.333 42.167 177.666 114.5 234.999s169.166 86 290.499 86c74 0 137.5 -10.333 190.5 -31s93.5 -51 121.5 -91c16 -23.333 27.5 -49.833 34.5 -79.5s10.5 -76.5 10.5 -140.5v-45v-473c0 -75.333 6.66699 -124.833 20 -148.5s38 -35.5 74 -35.5c6.66699 0 17.667 1 33 3
c2.66699 0.666992 4.66699 1 6 1v-53c-7.33301 -0.666992 -17.333 -1.83398 -30 -3.50098s-22 -2.5 -28 -2.5c-48.667 0 -84 15 -106 45s-33 79 -33 147c-42.667 -66 -100.834 -117 -174.501 -153s-158.167 -54 -253.5 -54c-94.667 0 -171.167 27.5 -229.5 82.5
s-87.5 127.167 -87.5 216.5zM137.002 283.002c0 -78.667 23.334 -139.333 70.001 -182s113 -64 199 -64c57.333 0 112.5 9.16699 165.5 27.5s98.833 43.833 137.5 76.5c39.333 34.667 66.833 73.5 82.5 116.5s23.5 107.5 23.5 193.5v157
c-16.667 -22.667 -91.334 -41.667 -224.001 -57c-21.333 -2.66699 -38 -4.66699 -50 -6c-151.333 -19.333 -256.5 -48.833 -315.5 -88.5s-88.5 -97.5 -88.5 -173.5zM234.003 1262c14 48 33.5 83.501 58.5 106.501s56.5 34.5 94.5 34.5c10 0 26.333 -2.33301 49 -7
c3.33301 -0.666992 5.66602 -1 6.99902 -1l114 -27c14 -3.33301 25.833 -5.83301 35.5 -7.5s17.834 -2.5 24.501 -2.5c21.333 0 39.333 5.66699 54 17s27.334 28.666 38.001 51.999h57c-18 -50 -38.833 -86 -62.5 -108s-53.834 -33 -90.501 -33
c-9.33301 0 -19.833 0.833008 -31.5 2.5s-23.5 4.16699 -35.5 7.5l-114 27c-8 2 -16.167 3.5 -24.5 4.5s-17.166 1.5 -26.499 1.5c-18.667 0 -35.334 -5.16699 -50.001 -15.5s-28.667 -27.5 -42 -51.5h-55z" />
    <glyph glyph-name="adieresis" unicode="&#xe4;" horiz-adv-x="1038" 
d="M70 272c0 94 32.002 165.669 96.002 215.002s173.333 85 328 107c27.333 4 64.333 8.66699 111 14c140 16 210 52.333 210 109v90c0 72 -24.667 127.167 -74 165.5s-120.333 57.5 -213 57.5c-106 0 -189.5 -23 -250.5 -69s-94.167 -111 -99.5 -195h-61
c4 99.333 42.167 177.666 114.5 234.999s169.166 86 290.499 86c74 0 137.5 -10.333 190.5 -31s93.5 -51 121.5 -91c16 -23.333 27.5 -49.833 34.5 -79.5s10.5 -76.5 10.5 -140.5v-45v-473c0 -75.333 6.66699 -124.833 20 -148.5s38 -35.5 74 -35.5c6.66699 0 17.667 1 33 3
c2.66699 0.666992 4.66699 1 6 1v-53c-7.33301 -0.666992 -17.333 -1.83398 -30 -3.50098s-22 -2.5 -28 -2.5c-48.667 0 -84 15 -106 45s-33 79 -33 147c-42.667 -66 -100.834 -117 -174.501 -153s-158.167 -54 -253.5 -54c-94.667 0 -171.167 27.5 -229.5 82.5
s-87.5 127.167 -87.5 216.5zM137.002 283.002c0 -78.667 23.334 -139.333 70.001 -182s113 -64 199 -64c57.333 0 112.5 9.16699 165.5 27.5s98.833 43.833 137.5 76.5c39.333 34.667 66.833 73.5 82.5 116.5s23.5 107.5 23.5 193.5v157
c-16.667 -22.667 -91.334 -41.667 -224.001 -57c-21.333 -2.66699 -38 -4.66699 -50 -6c-151.333 -19.333 -256.5 -48.833 -315.5 -88.5s-88.5 -97.5 -88.5 -173.5zM295.003 1282v115h92v-115h-92zM611.003 1282v115h94v-115h-94z" />
    <glyph glyph-name="aring" unicode="&#xe5;" horiz-adv-x="1038" 
d="M70 272c0 94 32.002 165.669 96.002 215.002s173.333 85 328 107c27.333 4 64.333 8.66699 111 14c140 16 210 52.333 210 109v90c0 72 -24.667 127.167 -74 165.5s-120.333 57.5 -213 57.5c-106 0 -189.5 -23 -250.5 -69s-94.167 -111 -99.5 -195h-61
c4 99.333 42.167 177.666 114.5 234.999s169.166 86 290.499 86c74 0 137.5 -10.333 190.5 -31s93.5 -51 121.5 -91c16 -23.333 27.5 -49.833 34.5 -79.5s10.5 -76.5 10.5 -140.5v-45v-473c0 -75.333 6.66699 -124.833 20 -148.5s38 -35.5 74 -35.5c6.66699 0 17.667 1 33 3
c2.66699 0.666992 4.66699 1 6 1v-53c-7.33301 -0.666992 -17.333 -1.83398 -30 -3.50098s-22 -2.5 -28 -2.5c-48.667 0 -84 15 -106 45s-33 79 -33 147c-42.667 -66 -100.834 -117 -174.501 -153s-158.167 -54 -253.5 -54c-94.667 0 -171.167 27.5 -229.5 82.5
s-87.5 127.167 -87.5 216.5zM137.002 283.002c0 -78.667 23.334 -139.333 70.001 -182s113 -64 199 -64c57.333 0 112.5 9.16699 165.5 27.5s98.833 43.833 137.5 76.5c39.333 34.667 66.833 73.5 82.5 116.5s23.5 107.5 23.5 193.5v157
c-16.667 -22.667 -91.334 -41.667 -224.001 -57c-21.333 -2.66699 -38 -4.66699 -50 -6c-151.333 -19.333 -256.5 -48.833 -315.5 -88.5s-88.5 -97.5 -88.5 -173.5zM289.003 1362c0 62.667 21.5 115.5 64.5 158.5s95.833 64.5 158.5 64.5c63.333 0 116.333 -21.333 159 -64
s64 -95.667 64 -159c0 -62.667 -21.5 -115.5 -64.5 -158.5s-95.833 -64.5 -158.5 -64.5s-115.5 21.5 -158.5 64.5s-64.5 95.833 -64.5 158.5zM346.003 1364c0 -46.667 16.167 -86.332 48.5 -118.999s71.5 -49 117.5 -49c46.667 0 86 16.167 118 48.5s48 72.166 48 119.499
s-15.833 86.833 -47.5 118.5s-71.167 47.5 -118.5 47.5c-46 0 -85.167 -16.167 -117.5 -48.5s-48.5 -71.5 -48.5 -117.5z" />
    <glyph glyph-name="ae" unicode="&#xe6;" horiz-adv-x="1788" 
d="M70 272c0 94.667 32.166 166.834 96.499 216.501s173.5 84.834 327.5 105.501c24 3.33301 57.667 7.66602 101 12.999c146.667 18 220 54.667 220 110v90c0 74 -23.833 129.333 -71.5 166s-119.5 55 -215.5 55c-107.333 0 -190.166 -21.5 -248.499 -64.5
s-93.5 -108.833 -105.5 -197.5h-59c4 98.667 43.5 176.5 118.5 233.5s176.167 85.5 303.5 85.5c102.667 0 183.167 -19.5 241.5 -58.5s93.166 -96.5 104.499 -172.5c40.667 75.333 93.334 132.666 158.001 171.999s138.334 59 221.001 59
c139.333 0 248.5 -46.167 327.5 -138.5s118.5 -220.166 118.5 -383.499v-39h-829v-20c0 -141.333 35.5 -255.833 106.5 -343.5s163.167 -131.5 276.5 -131.5c86 0 160.667 24.667 224 74s109.333 118.666 138 207.999h64c-28.667 -107.333 -80.334 -190.833 -155.001 -250.5
s-165 -89.5 -271 -89.5c-97.333 0 -180 24.167 -248 72.5s-120 119.833 -156 214.5c-29.333 -86.667 -86.5 -156.167 -171.5 -208.5s-184.167 -78.5 -297.5 -78.5c-95.333 0 -172.333 27.833 -231 83.5s-88 128.167 -88 217.5zM136.999 283
c0 -78 23.332 -138.833 69.999 -182.5s111.334 -65.5 194.001 -65.5c58 0 114.5 9.5 169.5 28.5s101.167 44.833 138.5 77.5c39.333 34.667 66.833 73.5 82.5 116.5s23.5 107.5 23.5 193.5v143c-29.333 -16 -99 -30.333 -209 -43c-28 -3.33301 -49.667 -6 -65 -8
c-151.333 -18.667 -256.5 -47.5 -315.5 -86.5s-88.5 -96.833 -88.5 -173.5zM878.998 584h759.001v10c0 129.333 -33.833 234 -101.5 314s-155.167 120 -262.5 120c-113.333 0 -205.833 -40 -277.5 -120s-110.834 -188 -117.501 -324z" />
    <glyph glyph-name="ccedilla" unicode="&#xe7;" horiz-adv-x="1063" 
d="M90 528c0 172.667 41.668 308.667 125.001 408s197.333 149 342 149c112 0 203.667 -29.333 275 -88s114.333 -140.334 129 -245.001h-66c-14.667 84.667 -52.334 151.834 -113.001 201.501s-135.667 74.5 -225 74.5c-124 0 -221.833 -44.5 -293.5 -133.5
s-107.5 -211.167 -107.5 -366.5c0 -154.667 35.833 -276.5 107.5 -365.5s169.5 -133.5 293.5 -133.5c93.333 0 172.333 28.667 237 86s103 133 115 227h62c-12.667 -114 -56.5 -204.333 -131.5 -271s-171.167 -100 -288.5 -100c-140.667 0 -252.667 50.167 -336 150.5
s-125 235.833 -125 406.5zM365.001 -358c40 -10.667 78.668 -18.5 116.001 -23.5s73.666 -7.5 108.999 -7.5c44.667 0 79.334 9.16699 104.001 27.5s37 43.833 37 76.5c0 39.333 -13.167 68.333 -39.5 87s-67.166 28 -122.499 28c-12 0 -21.333 -0.166992 -28 -0.5
s-13 -0.833008 -19 -1.5v172h41v-121h25c67.333 0 117.666 -12.667 150.999 -38s50 -63.666 50 -114.999c0 -54.667 -17.667 -96.667 -53 -126s-85.333 -44 -150 -44c-29.333 0 -60.333 2.16699 -93 6.5s-75.334 12.166 -128.001 23.499v56z" />
    <glyph glyph-name="egrave" unicode="&#xe8;" horiz-adv-x="1071" 
d="M88 528c0 172 40.499 307.833 121.499 407.5s190.833 149.5 329.5 149.5c139.333 0 248.5 -46.167 327.5 -138.5s118.5 -220.166 118.5 -383.499v-39h-829v-16c0 -143.333 35.333 -259 106 -347s163 -132 277 -132c87.333 0 163.5 25.167 228.5 75.5
s109.5 119.166 133.5 206.499h64c-24 -103.333 -74.667 -185.833 -152 -247.5s-168.666 -92.5 -273.999 -92.5c-138.667 0 -248.5 50 -329.5 150s-121.5 235.667 -121.5 407zM157.999 584l756.999 -0.000976562c0 134 -33.5 241.5 -100.5 322.5s-154.833 121.5 -263.5 121.5
c-113.333 0 -205.166 -39.667 -275.499 -119s-109.5 -187.666 -117.5 -324.999zM341.998 1524h109l209 -328h-64z" />
    <glyph glyph-name="eacute" unicode="&#xe9;" horiz-adv-x="1071" 
d="M88 528c0 172 40.499 307.833 121.499 407.5s190.833 149.5 329.5 149.5c139.333 0 248.5 -46.167 327.5 -138.5s118.5 -220.166 118.5 -383.499v-39h-829v-16c0 -143.333 35.333 -259 106 -347s163 -132 277 -132c87.333 0 163.5 25.167 228.5 75.5
s109.5 119.166 133.5 206.499h64c-24 -103.333 -74.667 -185.833 -152 -247.5s-168.666 -92.5 -273.999 -92.5c-138.667 0 -248.5 50 -329.5 150s-121.5 235.667 -121.5 407zM157.999 584l756.999 -0.000976562c0 134 -33.5 241.5 -100.5 322.5s-154.833 121.5 -263.5 121.5
c-113.333 0 -205.166 -39.667 -275.499 -119s-109.5 -187.666 -117.5 -324.999zM429.998 1196l209 328h109l-254 -328h-64z" />
    <glyph glyph-name="ecircumflex" unicode="&#xea;" horiz-adv-x="1071" 
d="M88 528c0 172 40.499 307.833 121.499 407.5s190.833 149.5 329.5 149.5c139.333 0 248.5 -46.167 327.5 -138.5s118.5 -220.166 118.5 -383.499v-39h-829v-16c0 -143.333 35.333 -259 106 -347s163 -132 277 -132c87.333 0 163.5 25.167 228.5 75.5
s109.5 119.166 133.5 206.499h64c-24 -103.333 -74.667 -185.833 -152 -247.5s-168.666 -92.5 -273.999 -92.5c-138.667 0 -248.5 50 -329.5 150s-121.5 235.667 -121.5 407zM157.999 584l756.999 -0.000976562c0 134 -33.5 241.5 -100.5 322.5s-154.833 121.5 -263.5 121.5
c-113.333 0 -205.166 -39.667 -275.499 -119s-109.5 -187.666 -117.5 -324.999zM290.998 1196l205 328h98l203 -328h-62l-190 270l-190 -270h-64z" />
    <glyph glyph-name="edieresis" unicode="&#xeb;" horiz-adv-x="1071" 
d="M88 528c0 172 40.499 307.833 121.499 407.5s190.833 149.5 329.5 149.5c139.333 0 248.5 -46.167 327.5 -138.5s118.5 -220.166 118.5 -383.499v-39h-829v-16c0 -143.333 35.333 -259 106 -347s163 -132 277 -132c87.333 0 163.5 25.167 228.5 75.5
s109.5 119.166 133.5 206.499h64c-24 -103.333 -74.667 -185.833 -152 -247.5s-168.666 -92.5 -273.999 -92.5c-138.667 0 -248.5 50 -329.5 150s-121.5 235.667 -121.5 407zM157.999 584l756.999 -0.000976562c0 134 -33.5 241.5 -100.5 322.5s-154.833 121.5 -263.5 121.5
c-113.333 0 -205.166 -39.667 -275.499 -119s-109.5 -187.666 -117.5 -324.999zM339.998 1282v115h92v-115h-92zM655.998 1282v115h94v-115h-94z" />
    <glyph glyph-name="igrave" unicode="&#xec;" horiz-adv-x="358" 
d="M-23 1524h109l209 -328h-64zM147 0v1063h64v-1063h-64z" />
    <glyph glyph-name="iacute" unicode="&#xed;" horiz-adv-x="358" 
d="M65 1196l209 328h109l-254 -328h-64zM147 0v1063h64v-1063h-64z" />
    <glyph glyph-name="icircumflex" unicode="&#xee;" horiz-adv-x="358" 
d="M-74 1196l205 328h98l203 -328h-62l-190 270l-190 -270h-64zM147 0v1063h64v-1063h-64z" />
    <glyph glyph-name="idieresis" unicode="&#xef;" horiz-adv-x="358" 
d="M-25 1282v115h92v-115h-92zM147 0v1063h64v-1063h-64zM291 1282v115h94v-115h-94z" />
    <glyph glyph-name="eth" unicode="&#xf0;" horiz-adv-x="1116" 
d="M88 510c0 171.333 41.167 304.669 123.5 400.002s197.5 143 345.5 143c61.333 0 117 -10.167 167 -30.5s98 -51.833 144 -94.5c-38.667 68 -82.334 128.667 -131.001 182s-101.667 99 -159 137l-281 -119l-21 54l242 102c-42.667 27.333 -88.667 53.166 -138 77.499
s-103.666 47.833 -162.999 70.5l25 51c56 -21.333 111.833 -46 167.5 -74s112.5 -60 170.5 -96l254 110l24 -53l-219 -96c128 -98.667 224.5 -211.5 289.5 -338.5s97.5 -266.167 97.5 -417.5c0 -174.667 -40.5 -309.167 -121.5 -403.5s-196.833 -141.5 -347.5 -141.5
c-150 0 -265.667 46.667 -347 140s-122 225.666 -122 396.999zM156 512.003c0 -150 35.833 -268.333 107.5 -355s169.5 -130 293.5 -130s222.333 43.333 295 130s109 205 109 355s-36.333 268.333 -109 355s-171 130 -295 130s-221.833 -43.333 -293.5 -130
s-107.5 -205 -107.5 -355z" />
    <glyph glyph-name="ntilde" unicode="&#xf1;" 
d="M141 0l0.00195312 1063h66v-174c32.667 64 79.667 112.667 141 146s133.666 50 216.999 50c122.667 0 214.167 -31.333 274.5 -94s90.5 -158 90.5 -286v-705h-66v684c0 121.333 -23.333 208.666 -70 261.999s-122.334 80 -227.001 80
c-60 0 -112.833 -8.83301 -158.5 -26.5s-84.167 -44.167 -115.5 -79.5s-53.5 -76.5 -66.5 -123.5s-19.5 -122.833 -19.5 -227.5v-59v-510h-66zM269.002 1262c14 48 33.5 83.501 58.5 106.501s56.5 34.5 94.5 34.5c10 0 26.333 -2.33301 49 -7
c3.33301 -0.666992 5.66602 -1 6.99902 -1l114 -27c14 -3.33301 25.833 -5.83301 35.5 -7.5s17.834 -2.5 24.501 -2.5c21.333 0 39.333 5.66699 54 17s27.334 28.666 38.001 51.999h57c-18 -50 -38.833 -86 -62.5 -108s-53.834 -33 -90.501 -33
c-9.33301 0 -19.833 0.833008 -31.5 2.5s-23.5 4.16699 -35.5 7.5l-114 27c-8 2 -16.167 3.5 -24.5 4.5s-17.166 1.5 -26.499 1.5c-18.667 0 -35.334 -5.16699 -50.001 -15.5s-28.667 -27.5 -42 -51.5h-55z" />
    <glyph glyph-name="ograve" unicode="&#xf2;" horiz-adv-x="1116" 
d="M90 528c0 172.667 41.667 308.667 125 408s197.333 149 342 149s259 -49.667 343 -149s126 -235.333 126 -408c0 -172 -42 -307.833 -126 -407.5s-198.333 -149.5 -343 -149.5s-258.667 49.667 -342 149s-125 235.333 -125 408zM156 528
c0 -154.667 35.833 -276.5 107.5 -365.5s169.5 -133.5 293.5 -133.5s222.333 44.5 295 133.5s109 210.833 109 365.5c0 155.333 -36.333 277.5 -109 366.5s-171 133.5 -295 133.5s-221.833 -44.5 -293.5 -133.5s-107.5 -211.167 -107.5 -366.5zM356 1524h109l209 -328h-64z
" />
    <glyph glyph-name="oacute" unicode="&#xf3;" horiz-adv-x="1116" 
d="M90 528c0 172.667 41.667 308.667 125 408s197.333 149 342 149s259 -49.667 343 -149s126 -235.333 126 -408c0 -172 -42 -307.833 -126 -407.5s-198.333 -149.5 -343 -149.5s-258.667 49.667 -342 149s-125 235.333 -125 408zM156 528
c0 -154.667 35.833 -276.5 107.5 -365.5s169.5 -133.5 293.5 -133.5s222.333 44.5 295 133.5s109 210.833 109 365.5c0 155.333 -36.333 277.5 -109 366.5s-171 133.5 -295 133.5s-221.833 -44.5 -293.5 -133.5s-107.5 -211.167 -107.5 -366.5zM444 1196l209 328h109
l-254 -328h-64z" />
    <glyph glyph-name="ocircumflex" unicode="&#xf4;" horiz-adv-x="1116" 
d="M90 528c0 172.667 41.667 308.667 125 408s197.333 149 342 149s259 -49.667 343 -149s126 -235.333 126 -408c0 -172 -42 -307.833 -126 -407.5s-198.333 -149.5 -343 -149.5s-258.667 49.667 -342 149s-125 235.333 -125 408zM156 528
c0 -154.667 35.833 -276.5 107.5 -365.5s169.5 -133.5 293.5 -133.5s222.333 44.5 295 133.5s109 210.833 109 365.5c0 155.333 -36.333 277.5 -109 366.5s-171 133.5 -295 133.5s-221.833 -44.5 -293.5 -133.5s-107.5 -211.167 -107.5 -366.5zM305 1196l205 328h98
l203 -328h-62l-190 270l-190 -270h-64z" />
    <glyph glyph-name="otilde" unicode="&#xf5;" horiz-adv-x="1116" 
d="M90 528c0 172.667 41.667 308.667 125 408s197.333 149 342 149s259 -49.667 343 -149s126 -235.333 126 -408c0 -172 -42 -307.833 -126 -407.5s-198.333 -149.5 -343 -149.5s-258.667 49.667 -342 149s-125 235.333 -125 408zM156 528
c0 -154.667 35.833 -276.5 107.5 -365.5s169.5 -133.5 293.5 -133.5s222.333 44.5 295 133.5s109 210.833 109 365.5c0 155.333 -36.333 277.5 -109 366.5s-171 133.5 -295 133.5s-221.833 -44.5 -293.5 -133.5s-107.5 -211.167 -107.5 -366.5zM293 1262
c14 48 33.5 83.501 58.5 106.501s56.5 34.5 94.5 34.5c10 0 26.333 -2.33301 49 -7c3.33301 -0.666992 5.66602 -1 6.99902 -1l114 -27c14 -3.33301 25.833 -5.83301 35.5 -7.5s17.834 -2.5 24.501 -2.5c21.333 0 39.333 5.66699 54 17s27.334 28.666 38.001 51.999h57
c-18 -50 -38.833 -86 -62.5 -108s-53.834 -33 -90.501 -33c-9.33301 0 -19.833 0.833008 -31.5 2.5s-23.5 4.16699 -35.5 7.5l-114 27c-8 2 -16.167 3.5 -24.5 4.5s-17.166 1.5 -26.499 1.5c-18.667 0 -35.334 -5.16699 -50.001 -15.5s-28.667 -27.5 -42 -51.5h-55z" />
    <glyph glyph-name="odieresis" unicode="&#xf6;" horiz-adv-x="1116" 
d="M90 528c0 172.667 41.667 308.667 125 408s197.333 149 342 149s259 -49.667 343 -149s126 -235.333 126 -408c0 -172 -42 -307.833 -126 -407.5s-198.333 -149.5 -343 -149.5s-258.667 49.667 -342 149s-125 235.333 -125 408zM156 528
c0 -154.667 35.833 -276.5 107.5 -365.5s169.5 -133.5 293.5 -133.5s222.333 44.5 295 133.5s109 210.833 109 365.5c0 155.333 -36.333 277.5 -109 366.5s-171 133.5 -295 133.5s-221.833 -44.5 -293.5 -133.5s-107.5 -211.167 -107.5 -366.5zM354 1282v115h92v-115h-92z
M670 1282v115h94v-115h-94z" />
    <glyph glyph-name="divide" unicode="&#xf7;" horiz-adv-x="1706" 
d="M254 580v61h1198v-61h-1198zM762 270c0 25.333 9.16895 46.999 27.502 64.999s39.833 27 64.5 27c25.333 0 46.666 -8.5 63.999 -25.5s26 -38.5 26 -64.5c0 -24.667 -8.83301 -46.167 -26.5 -64.5s-38.834 -27.5 -63.501 -27.5c-25.333 0 -47 8.83301 -65 26.5
s-27 38.834 -27 63.501zM762.002 947.999c0 24.667 9.16504 46.167 27.498 64.5s39.833 27.5 64.5 27.5s45.834 -9 63.501 -27s26.5 -39.667 26.5 -65s-8.66699 -46.666 -26 -63.999s-38.666 -26 -63.999 -26c-26 0 -47.833 8.66699 -65.5 26s-26.5 38.666 -26.5 63.999z
" />
    <glyph glyph-name="oslash" unicode="&#xf8;" horiz-adv-x="1116" 
d="M61 -4l132 155.999c-35.333 50.667 -61.333 106.5 -78 167.5s-25 129.833 -25 206.5c0 173.333 42 309.833 126 409.5s198.333 149.5 343 149.5c68.667 0 129.834 -11 183.501 -33s102.5 -56 146.5 -102l123 144l43 -41l-129 -150
c35.333 -50.667 61.166 -105.167 77.499 -163.5s24.5 -124.5 24.5 -198.5c0 -179.333 -41.333 -319.166 -124 -419.499s-197.667 -150.5 -345 -150.5c-67.333 0 -128.5 11.167 -183.5 33.5s-103.833 55.5 -146.5 99.5l-127 -147zM156 523.999
c0 -66 6.83496 -126.332 20.502 -180.999s34.167 -102 61.5 -142l608 700c-36.667 42.667 -79.334 74.5 -128.001 95.5s-104.334 31.5 -167.001 31.5c-120 0 -215.833 -45.333 -287.5 -136s-107.5 -213.334 -107.5 -368.001zM274.002 154
c38 -42.667 79.999 -74.168 125.999 -94.501s99 -30.5 159 -30.5c124 0 222 44.5 294 133.5s108 210.833 108 365.5c0 70.667 -6.66699 133.334 -20 188.001s-32.666 100 -57.999 136z" />
    <glyph glyph-name="ugrave" unicode="&#xf9;" 
d="M137 352v711h64v-690c0 -120.667 23.5 -207.834 70.5 -261.501s123.167 -80.5 228.5 -80.5c60 0 112.833 8.83301 158.5 26.5s84.167 44.167 115.5 79.5s53.5 76.5 66.5 123.5s19.5 122.5 19.5 226.5v60v516h64v-1063h-64v166
c-32.667 -63.333 -79.5 -111.666 -140.5 -144.999s-133.5 -50 -217.5 -50c-122.667 0 -214.167 31.5 -274.5 94.5s-90.5 158.5 -90.5 286.5zM332 1524h109l209 -328h-64z" />
    <glyph glyph-name="uacute" unicode="&#xfa;" 
d="M137 352v711h64v-690c0 -120.667 23.5 -207.834 70.5 -261.501s123.167 -80.5 228.5 -80.5c60 0 112.833 8.83301 158.5 26.5s84.167 44.167 115.5 79.5s53.5 76.5 66.5 123.5s19.5 122.5 19.5 226.5v60v516h64v-1063h-64v166
c-32.667 -63.333 -79.5 -111.666 -140.5 -144.999s-133.5 -50 -217.5 -50c-122.667 0 -214.167 31.5 -274.5 94.5s-90.5 158.5 -90.5 286.5zM420 1196l209 328h109l-254 -328h-64z" />
    <glyph glyph-name="ucircumflex" unicode="&#xfb;" 
d="M137 352v711h64v-690c0 -120.667 23.5 -207.834 70.5 -261.501s123.167 -80.5 228.5 -80.5c60 0 112.833 8.83301 158.5 26.5s84.167 44.167 115.5 79.5s53.5 76.5 66.5 123.5s19.5 122.5 19.5 226.5v60v516h64v-1063h-64v166
c-32.667 -63.333 -79.5 -111.666 -140.5 -144.999s-133.5 -50 -217.5 -50c-122.667 0 -214.167 31.5 -274.5 94.5s-90.5 158.5 -90.5 286.5zM281 1196l205 328h98l203 -328h-62l-190 270l-190 -270h-64z" />
    <glyph glyph-name="udieresis" unicode="&#xfc;" 
d="M137 352v711h64v-690c0 -120.667 23.5 -207.834 70.5 -261.501s123.167 -80.5 228.5 -80.5c60 0 112.833 8.83301 158.5 26.5s84.167 44.167 115.5 79.5s53.5 76.5 66.5 123.5s19.5 122.5 19.5 226.5v60v516h64v-1063h-64v166
c-32.667 -63.333 -79.5 -111.666 -140.5 -144.999s-133.5 -50 -217.5 -50c-122.667 0 -214.167 31.5 -274.5 94.5s-90.5 158.5 -90.5 286.5zM330 1282v115h92v-115h-92zM646 1282v115h94v-115h-94z" />
    <glyph glyph-name="yacute" unicode="&#xfd;" horiz-adv-x="895" 
d="M12 1063l63.9971 0.000976562l366 -987l367 987h70l-463 -1225c-39.333 -102.667 -76.333 -172.334 -111 -209.001s-77.667 -55 -129 -55c-16.667 0 -30.834 1 -42.501 3s-22.167 5 -31.5 9v62c14.667 -4 28.334 -7.16699 41.001 -9.5s24.334 -3.5 35.001 -3.5
c32.667 0 59.834 9.5 81.501 28.5s40.834 50.5 57.501 94.5l91 234zM333.997 1196l209 328h109l-254 -328h-64z" />
    <glyph glyph-name="thorn" unicode="&#xfe;" horiz-adv-x="1171" 
d="M141 -422v1892h66v-651c34 87.333 84.833 153.5 152.5 198.5s150.5 67.5 248.5 67.5c144.667 0 259 -49.667 343 -149s126 -235.333 126 -408s-41.833 -308.667 -125.5 -408s-198.167 -149 -343.5 -149c-96 0 -178.5 22.333 -247.5 67s-120.167 108.334 -153.5 191.001
v-651h-66zM207 527.999c0 -154.667 35.833 -276.5 107.5 -365.5s169.5 -133.5 293.5 -133.5c124.667 0 223.167 44.5 295.5 133.5s108.5 210.833 108.5 365.5s-36.333 276.667 -109 366s-171 134 -295 134c-123.333 0 -221 -44.667 -293 -134s-108 -211.333 -108 -366z" />
    <glyph glyph-name="ydieresis" unicode="&#xff;" horiz-adv-x="895" 
d="M12 1063l63.9971 0.000976562l366 -987l367 987h70l-463 -1225c-39.333 -102.667 -76.333 -172.334 -111 -209.001s-77.667 -55 -129 -55c-16.667 0 -30.834 1 -42.501 3s-22.167 5 -31.5 9v62c14.667 -4 28.334 -7.16699 41.001 -9.5s24.334 -3.5 35.001 -3.5
c32.667 0 59.834 9.5 81.501 28.5s40.834 50.5 57.501 94.5l91 234zM243.997 1282v115h92v-115h-92zM559.997 1282v115h94v-115h-94z" />
    <glyph glyph-name="OE" unicode="&#x152;" horiz-adv-x="2140" 
d="M106 735c0 240.667 58.167 429.5 174.5 566.5s276.833 205.5 481.5 205.5c86 0 162.833 -11.667 230.5 -35s127.167 -58.666 178.5 -105.999v107h900v-64h-830v-610h758v-64h-758v-672h850v-63h-920v117c-54 -50 -115.333 -87.5 -184 -112.5s-145 -37.5 -229 -37.5
c-203.333 0 -362.833 68.167 -478.5 204.5s-173.5 324.166 -173.5 563.499zM178 735c0 -220 51.3311 -392.666 153.998 -517.999s244.667 -188 426 -188c89.333 0 168.333 14.5 237 43.5s127.334 73.167 176.001 132.5v1065c-40.667 55.333 -97.167 98.166 -169.5 128.499
s-154.166 45.5 -245.499 45.5c-180 0 -321.333 -63 -424 -189s-154 -299.333 -154 -520z" />
    <glyph glyph-name="oe" unicode="&#x153;" horiz-adv-x="1942" 
d="M90 528c0 172.667 41.666 308.669 124.999 408.002s197.333 149 342 149c111.333 0 204.5 -28.833 279.5 -86.5s127.167 -140.5 156.5 -248.5c30 108 81.333 190.833 154 248.5s162 86.5 268 86.5c136.667 0 245.334 -46.5 326.001 -139.5s121 -219.167 121 -378.5
c0 -4.66699 -0.333008 -11.834 -1 -21.501s-1 -16.834 -1 -21.501h-834c0 -150.667 35.5 -270.834 106.5 -360.501s165.167 -134.5 282.5 -134.5c86.667 0 161.667 24.667 225 74s109.333 118.666 138 207.999h61c-24.667 -104.667 -75 -187.5 -151 -248.5
s-167 -91.5 -273 -91.5s-195 28.833 -267 86.5s-123 140.834 -153 249.501c-33.333 -109.333 -87.333 -192.666 -162 -249.999s-166.667 -86 -276 -86c-144.667 0 -258.667 49.667 -342 149s-125 235.333 -125 408zM155.999 528.002c0 -154.667 35.833 -276.5 107.5 -365.5
s169.5 -133.5 293.5 -133.5s222.333 44.5 295 133.5s109 210.833 109 365.5c0 155.333 -36.333 277.5 -109 366.5s-171 133.5 -295 133.5s-221.833 -44.5 -293.5 -133.5s-107.5 -211.167 -107.5 -366.5zM1028 584.002h757.999v24c0 125.333 -33.667 226.666 -101 303.999
s-154.666 116 -261.999 116c-113.333 0 -206.5 -40.667 -279.5 -122s-111.5 -188.666 -115.5 -321.999z" />
    <glyph glyph-name="Ydieresis" unicode="&#x178;" horiz-adv-x="1085" 
d="M2 1473h78l465 -752l459 752h77l-506 -826v-647h-67v651zM338 1702v115h92v-115h-92zM654 1702v115h94v-115h-94z" />
    <glyph glyph-name="circumflex" unicode="&#x2c6;" horiz-adv-x="1024" 
d="M258 1196l205 328h98l203 -328h-62l-190 270l-190 -270h-64z" />
    <glyph glyph-name="tilde" unicode="&#x2dc;" horiz-adv-x="1024" 
d="M246 1262c14 48 33.5 83.501 58.5 106.501s56.5 34.5 94.5 34.5c10 0 26.333 -2.33301 49 -7c3.33301 -0.666992 5.66602 -1 6.99902 -1l114 -27c14 -3.33301 25.833 -5.83301 35.5 -7.5s17.834 -2.5 24.501 -2.5c21.333 0 39.333 5.66699 54 17
s27.334 28.666 38.001 51.999h57c-18 -50 -38.833 -86 -62.5 -108s-53.834 -33 -90.501 -33c-9.33301 0 -19.833 0.833008 -31.5 2.5s-23.5 4.16699 -35.5 7.5l-114 27c-8 2 -16.167 3.5 -24.5 4.5s-17.166 1.5 -26.499 1.5c-18.667 0 -35.334 -5.16699 -50.001 -15.5
s-28.667 -27.5 -42 -51.5h-55z" />
    <glyph glyph-name="uni2000" unicode="&#x2000;" horiz-adv-x="986" 
 />
    <glyph glyph-name="uni2001" unicode="&#x2001;" horiz-adv-x="1972" 
 />
    <glyph glyph-name="uni2002" unicode="&#x2002;" horiz-adv-x="986" 
 />
    <glyph glyph-name="uni2003" unicode="&#x2003;" horiz-adv-x="1972" 
 />
    <glyph glyph-name="uni2004" unicode="&#x2004;" horiz-adv-x="657" 
 />
    <glyph glyph-name="uni2005" unicode="&#x2005;" horiz-adv-x="493" 
 />
    <glyph glyph-name="uni2006" unicode="&#x2006;" horiz-adv-x="328" 
 />
    <glyph glyph-name="uni2007" unicode="&#x2007;" horiz-adv-x="328" 
 />
    <glyph glyph-name="uni2008" unicode="&#x2008;" horiz-adv-x="246" 
 />
    <glyph glyph-name="uni2009" unicode="&#x2009;" horiz-adv-x="394" 
 />
    <glyph glyph-name="uni200A" unicode="&#x200a;" horiz-adv-x="109" 
 />
    <glyph glyph-name="uni2010" unicode="&#x2010;" horiz-adv-x="702" 
d="M78 500v57h545v-57h-545z" />
    <glyph glyph-name="uni2011" unicode="&#x2011;" horiz-adv-x="702" 
d="M78 500v57h545v-57h-545z" />
    <glyph glyph-name="figuredash" unicode="&#x2012;" horiz-adv-x="702" 
d="M78 500v57h545v-57h-545z" />
    <glyph glyph-name="endash" unicode="&#x2013;" horiz-adv-x="1024" 
d="M0 508v43h1024v-43h-1024z" />
    <glyph glyph-name="emdash" unicode="&#x2014;" horiz-adv-x="2048" 
d="M0 508v43h2048v-43h-2048z" />
    <glyph glyph-name="quoteleft" unicode="&#x2018;" horiz-adv-x="485" 
d="M135 1473h70l145 -400h-71z" />
    <glyph glyph-name="quoteright" unicode="&#x2019;" horiz-adv-x="485" 
d="M135 1073l144 400h69l-143 -400h-70z" />
    <glyph glyph-name="quotesinglbase" unicode="&#x201a;" horiz-adv-x="485" 
d="M96 -217l144 399h71l-143 -399h-72z" />
    <glyph glyph-name="quotedblleft" unicode="&#x201c;" horiz-adv-x="780" 
d="M135 1473h70l145 -400h-71zM428 1473h72l143 -400h-72z" />
    <glyph glyph-name="quotedblright" unicode="&#x201d;" horiz-adv-x="780" 
d="M135 1073l144 400h69l-143 -400h-70zM428 1073l145 400h70l-143 -400h-72z" />
    <glyph glyph-name="quotedblbase" unicode="&#x201e;" horiz-adv-x="780" 
d="M96 -217l144 399h71l-143 -399h-72zM391 -217l144 399h69l-143 -399h-70z" />
    <glyph glyph-name="bullet" unicode="&#x2022;" horiz-adv-x="1208" 
d="M307 762c0 82 28.999 151.666 86.999 208.999s128 86 210 86c81.333 0 150.833 -28.833 208.5 -86.5s86.5 -127.167 86.5 -208.5s-29.167 -151.166 -87.5 -209.499s-128.166 -87.5 -209.499 -87.5c-82 0 -151.667 29 -209 87s-86 128 -86 210z" />
    <glyph glyph-name="ellipsis" unicode="&#x2026;" horiz-adv-x="2048" 
d="M309 0v178h66v-178h-66zM991 0v178h66v-178h-66zM1675 0v178h66v-178h-66z" />
    <glyph glyph-name="uni202F" unicode="&#x202f;" horiz-adv-x="394" 
 />
    <glyph glyph-name="guilsinglleft" unicode="&#x2039;" horiz-adv-x="508" 
d="M88 532l256 308h82l-250 -308l250 -323h-82z" />
    <glyph glyph-name="guilsinglright" unicode="&#x203a;" horiz-adv-x="508" 
d="M80 209l252 305l-252 326h84l256 -326l-256 -305h-84z" />
    <glyph glyph-name="uni205F" unicode="&#x205f;" horiz-adv-x="493" 
 />
    <glyph glyph-name="trademark" unicode="&#x2122;" horiz-adv-x="1706" 
d="M285 1411v41h409v-41h-174v-485h-57v485h-178zM827 926v526h88l181 -455l168 455h86v-526h-47v489l-185 -489h-45l-196 489v-489h-50z" />
    <glyph glyph-name="uniE000" unicode="&#xe000;" horiz-adv-x="1065" 
d="M0 0v1065h1065v-1065h-1065z" />
    <glyph glyph-name="glyph1" horiz-adv-x="0" 
 />
    <glyph glyph-name="glyph2" horiz-adv-x="2048" 
 />
  </font>
</defs>
</svg>
