<?xml version="1.0" standalone="no"?>
<!DOCTYPE svg PUBLIC "-//W3C//DTD SVG 1.1//EN" "http://www.w3.org/Graphics/SVG/1.1/DTD/svg11.dtd" >
<svg>
<metadata>
Created by FontForge 20090914 at Wed Jul 25 09:53:23 2012
 By www-data
Typeface: Copyright &#194;&#169;1995 International Typeface Corporation. Data: Copyright &#194;&#169; 1995 Microsoft Corportation. All rights reserved.
</metadata>
<defs>
<font id="ErasITC-Demi" horiz-adv-x="1249" >
  <font-face 
    font-family="Eras Demi ITC"
    font-weight="400"
    font-stretch="normal"
    units-per-em="2048"
    panose-1="2 11 8 5 3 5 4 2 8 4"
    ascent="1638"
    descent="-410"
    x-height="1017"
    cap-height="1365"
    bbox="-346 -512 2479 1841"
    underline-thickness="120"
    underline-position="-94"
    unicode-range="U+0020-U+F002"
  />
<missing-glyph horiz-adv-x="2048" 
d="M256 0v1536h1536v-1536h-1536zM384 128h1280v1280h-1280v-1280z" />
    <glyph glyph-name=".notdef" horiz-adv-x="2048" 
d="M256 0v1536h1536v-1536h-1536zM384 128h1280v1280h-1280v-1280z" />
    <glyph glyph-name="space" unicode=" " horiz-adv-x="512" 
 />
    <glyph glyph-name="exclam" unicode="!" horiz-adv-x="641" 
d="M182 399l11 352l15 614c64 -1.33301 114.333 -2 151 -2c28.667 0 77 0.666992 145 2l-21 -275l-42 -691c-48 1.33301 -87 2 -117 2c-42.667 0 -90 -0.666992 -142 -2zM142 0l5.99902 83.001c2 24 3.66699 49.333 5 76l5 101c76 -1.33301 128.333 -2 157 -2
c20.667 0 70.334 0.666992 149.001 2c-5.33301 -74.667 -10 -161.334 -14 -260.001l-150 2c-30 0 -82.667 -0.666992 -158 -2z" />
    <glyph glyph-name="quotedbl" unicode="&#x22;" horiz-adv-x="700" 
d="M141 997c3.33301 69.333 4.99805 178 4.99805 326l1 42c40.667 -1.33301 73.667 -2 99 -2c20.667 0 52.334 0.666992 95.001 2c-13.333 -119.333 -24.333 -242 -33 -368c-33.333 2 -58.666 3 -75.999 3c-24 0 -54.333 -1 -91 -3zM425.998 997
c2.66699 58 4.33105 124.667 4.99805 200l1 168c40.667 -1.33301 73.667 -2 99 -2c20.667 0 52.334 0.666992 95.001 2c-14 -127.333 -25 -250 -33 -368c-33.333 2 -58.666 3 -75.999 3c-24 0 -54.333 -1 -91 -3z" />
    <glyph glyph-name="numbersign" unicode="#" 
d="M296 437l-230.998 -2c12.667 55.333 24 114 34 176l231 -2l30 168l-52 -1l-89 -1l-91 -1c11.333 46 23 104.667 35 176l229 -2l74 417c23.333 -1.33301 55 -2 95 -2c42 0 73.667 0.666992 95 2l-78 -418h209l74 418c23.333 -1.33301 55 -2 95 -2
c42 0 73.667 0.666992 95 2c-14 -70.667 -39.667 -209.667 -77 -417c141.333 1.33301 217.666 2 228.999 2c-16.667 -75.333 -28 -134 -34 -176l-229 3l-30 -168l230 2c-10.667 -43.333 -22.334 -102 -35.001 -176l-228 2l-77 -437c-23.333 1.33301 -55.333 2 -96 2
c-42 0 -73.333 -0.666992 -94 -2l82 438l-107 1l-102 -1l-78 -438c-23.333 1.33301 -55.333 2 -96 2c-42 0 -73.333 -0.666992 -94 -2zM546.002 777l-32 -169h210l31 169l-106 1z" />
    <glyph glyph-name="dollar" unicode="$" 
d="M184 314c119.333 -58.667 225 -88.001 317 -88.001c33.333 0 64.666 6.16699 93.999 18.5s52.166 30.666 68.499 54.999s24.5 51.166 24.5 80.499c0 12.667 -1.5 25.334 -4.5 38.001s-8.66699 25.667 -17 39s-16.333 24.5 -24 33.5s-14.167 15.833 -19.5 20.5l-225 214
c-38.667 37.333 -66.167 65.833 -82.5 85.5s-31.666 42.834 -45.999 69.501s-24.833 53.5 -31.5 80.5s-10 53.5 -10 79.5c0 38 6.83301 74.667 20.5 110s33.667 67.833 60 97.5s56 53 89 70s82.833 32.833 149.5 47.5c1.33301 20.667 2 44.334 2 71.001
c0 40.667 -0.333008 82.334 -1 125.001c56 -1.33301 99.667 -2 131 -2c34 0 77.333 0.666992 130 2c-5.33301 -70 -8 -135 -8 -195c42 -4.66699 76.667 -9.83398 104 -15.501s60 -13.834 98 -24.501c2 -64.667 7 -146 15 -244c-96.667 42.667 -183 64 -259 64
c-32 0 -61 -5.33301 -87 -16s-46.667 -27.334 -62 -50.001s-23 -46.667 -23 -72c0 -13.333 1.5 -26.166 4.5 -38.499s7.5 -24.166 13.5 -35.499s15 -24.333 27 -39s22.167 -26.167 30.5 -34.5l65.5 -62.5c106.667 -99.333 175.667 -167.833 207 -205.5
s54.333 -75.834 69 -114.501s22 -77.334 22 -116.001c0 -33.333 -5 -65.833 -15 -97.5s-24 -60.667 -42 -87s-38 -49 -60 -68s-45.167 -34.833 -69.5 -47.5s-60.5 -27 -108.5 -43l-2 -110c0 -23.333 0.666992 -58.666 2 -105.999c-49.333 1.33301 -91.333 2 -126 2
c-36 0 -81.333 -0.666992 -136 -2c4.66699 64 7 129 7 195c-57.333 6 -105.166 13.5 -143.499 22.5s-83.833 23.167 -136.5 42.5c-3.33301 118.667 -7.33301 202.334 -12 251.001z" />
    <glyph glyph-name="percent" unicode="%" horiz-adv-x="1742" 
d="M403 1380c64.667 0 120.334 -15.668 167.001 -47.001s82.167 -77.166 106.5 -137.499s36.5 -131.833 36.5 -214.5c0 -94.667 -14.667 -181.167 -44 -259.5s-70.333 -134.333 -123 -168s-113.334 -50.5 -182.001 -50.5c-49.333 0 -95 9.16699 -137 27.5
s-76.333 46 -103 83s-46 80 -58 129s-18 99.833 -18 152.5c0 88.667 14.333 174 43 256s70.667 140.667 126 176s117.333 53 186 53zM394 1240c-31.333 0 -59.832 -13.668 -85.499 -41.001s-45.334 -69 -59.001 -125s-20.5 -117.333 -20.5 -184
c0 -85.333 12.667 -148.166 38 -188.499s58.666 -60.5 99.999 -60.5c16 0 31.167 3.16699 45.5 9.5s28.833 18.333 43.5 36s28.167 42.667 40.5 75s21.333 68 27 107s8.5 79.167 8.5 120.5c0 83.333 -13.167 146 -39.5 188s-59.166 63 -98.499 63zM405.001 -0.00195312
l397.001 695l374 670c29.333 -1.33301 57.666 -2 84.999 -2c24 0 51.667 0.666992 83 2l-274 -477l-413 -739l-78 -149c-30 1.33301 -57.333 2 -82 2c-20 0 -50.667 -0.666992 -92 -2zM1387 860.998c64.667 0 119.668 -14.168 165.001 -42.501s81.166 -72 107.499 -131
s39.5 -132.167 39.5 -219.5c0 -62 -6.83301 -124 -20.5 -186s-35.5 -116.667 -65.5 -164s-67.833 -81.333 -113.5 -102s-95.834 -31 -150.501 -31c-66.667 0 -123.167 14.5 -169.5 43.5s-82.166 72.833 -107.499 131.5s-38 131.334 -38 218.001
c0 90.667 14.667 176.5 44 257.5s71.333 138.833 126 173.5s115.667 52 183 52zM1381 720.997c-34.667 0 -64.499 -14.8311 -89.499 -44.498s-43.833 -71.334 -56.5 -125.001s-19 -113.167 -19 -178.5c0 -60.667 5.66699 -108.334 17 -143.001s27.5 -61.167 48.5 -79.5
s45.167 -27.5 72.5 -27.5c16 0 31 3 45 9s28.333 17.667 43 35s28.167 42.333 40.5 75s21.166 68.5 26.499 107.5s8 79.167 8 120.5c0 83.333 -12.333 146 -37 188s-57.667 63 -99 63z" />
    <glyph glyph-name="ampersand" unicode="&#x26;" horiz-adv-x="1489" 
d="M1087 662c52.667 -1.33301 94.6699 -1.99609 126.003 -1.99609s71.666 0.666992 120.999 2c0.666992 -150 -37 -289.667 -113 -419l122.5 -130c39.667 -40 75.5 -77.667 107.5 -113c-70.667 1.33301 -125.667 2 -165 2c-52 0 -104.667 -0.666992 -158 -2l-114 119
c-25.333 -19.333 -47.166 -35 -65.499 -47s-40.666 -24.333 -66.999 -37s-54.166 -23.334 -83.499 -32.001s-60.333 -15.334 -93 -20.001s-68 -7 -106 -7c-98 0 -186.5 16.167 -265.5 48.5s-139 80.666 -180 144.999s-61.5 134.166 -61.5 209.499
c0 53.333 10 103.666 30 150.999s53.667 93.166 101 137.499s120.666 93.166 219.999 146.499c-34.667 53.333 -59.334 100 -74.001 140s-22 78.333 -22 115c0 44 10.167 86.833 30.5 128.5s50.166 77.834 89.499 108.501s83.166 52.167 131.499 64.5
s99.833 18.5 154.5 18.5c86 0 182.667 -13.667 290 -41l5 -223c-45.333 22 -83.5 36.833 -114.5 44.5s-61.5 11.5 -91.5 11.5c-38.667 0 -74.167 -6.83301 -106.5 -20.5s-57 -33.667 -74 -60s-25.5 -54.166 -25.5 -83.499c0 -16 2.16699 -32.833 6.5 -50.5
s12.5 -38.5 24.5 -62.5c16.667 -33.333 41 -72 73 -116c38.667 -52.667 79 -102.334 121 -149.001c10 -12 46 -49.667 108 -113l80 -85c9.33301 22.667 16 41.834 20 57.501s7.66699 37.834 11 66.501s5.66602 61 6.99902 97zM878.003 282.004l-130.999 140.999l-94 103.5
l-89 105.5c-46 -28.667 -80.167 -51.834 -102.5 -69.501s-41 -37 -56 -58s-25.333 -41.333 -31 -61s-8.5 -39.5 -8.5 -59.5c0 -39.333 11.167 -75.166 33.5 -107.499s53.666 -57 93.999 -74s85.833 -25.5 136.5 -25.5c28 0 55 2.83301 81 8.5s49.167 13.334 69.5 23.001
s37.333 20 51 31s29.167 25.167 46.5 42.5z" />
    <glyph glyph-name="quotesingle" unicode="'" horiz-adv-x="415" 
d="M141 997c3.33301 69.333 4.99805 178 4.99805 326l1 42c40.667 -1.33301 73.667 -2 99 -2c20.667 0 52.334 0.666992 95.001 2c-13.333 -119.333 -24.333 -242 -33 -368c-33.333 2 -58.666 3 -75.999 3c-24 0 -54.333 -1 -91 -3z" />
    <glyph glyph-name="parenleft" unicode="(" horiz-adv-x="707" 
d="M257 -459c-26.667 102.667 -50.665 217.83 -71.998 345.497s-32 260.834 -32 399.501c0 116.667 7.5 233.5 22.5 350.5s41 247 78 390s70.167 255.833 99.5 338.5c42.667 -1.33301 80 -2 112 -2c34 0 72 0.666992 114 2l-45 -166
c-14 -51.333 -27.833 -107.5 -41.5 -168.5s-25.834 -122.167 -36.501 -183.5s-19.834 -125.666 -27.501 -192.999s-13.5 -134.166 -17.5 -200.499s-6 -132.5 -6 -198.5c0 -72 1.5 -138.667 4.5 -200s7.83301 -121.5 14.5 -180.5s14 -110.333 22 -154
s20.667 -103.5 38 -179.5c-44 1.33301 -80.667 2 -110 2c-32.667 0 -71.667 -0.666992 -117 -2z" />
    <glyph glyph-name="parenright" unicode=")" horiz-adv-x="698" 
d="M174 1365c43.333 -1.33301 81 -2.00195 113 -2.00195c34 0 71.333 0.666992 112 2c34 -156.667 58.667 -297.5 74 -422.5s23 -247.5 23 -367.5c0 -115.333 -7.5 -231 -22.5 -347s-39 -238 -72 -366s-65.833 -235 -98.5 -321c-42.667 1.33301 -81.334 2 -116.001 2
c-35.333 0 -72 -0.666992 -110 -2c30 95.333 51.333 167 64 215c19.333 72.667 35.333 147.334 48 224.001c18.667 109.333 32.834 219.833 42.501 331.5s14.5 218.167 14.5 319.5c0 69.333 -2.16699 139.333 -6.5 210s-10 136.334 -17 197.001s-13.167 107 -18.5 139z" />
    <glyph glyph-name="asterisk" unicode="*" horiz-adv-x="1027" 
d="M219 816l182.999 194l-241 75c26.667 49.333 50.334 99.333 71.001 150l234 -105l-4 259c36.667 -1.33301 65 -2 85 -2c23.333 0 51 0.666992 83 2l-32 -259l245 100c14 -45.333 31 -95.333 51 -150l-250 -73l162 -193l-63 -47l-72 -58l-152 221l-179 -221
c-36.667 35.333 -77 71 -121 107z" />
    <glyph glyph-name="plus" unicode="+" 
d="M103 612c5.33301 50 8.66699 110.667 10 182c178 -2.66699 321.333 -4 430 -4c2 46.667 7 192.667 15 438c22.667 -1.33301 54.667 -2 96 -2c42 0 74 0.666992 96 2l-23 -438l176 1l259 3c-4.66699 -47.333 -8.33398 -108 -11.001 -182
c-187.333 2.66699 -331.666 4 -432.999 4c-2.66699 -52.667 -7.66699 -198.667 -15 -438c-24.667 1.33301 -56.667 2 -96 2s-71.333 -0.666992 -96 -2l23 438h-127z" />
    <glyph glyph-name="comma" unicode="," horiz-adv-x="530" 
d="M-7 -237l150 434c72.667 -1.33301 124 -2 154 -2c24 0 73.333 0.666992 148 2l-84.5 -139.5l-91 -152.5l-83.5 -141c-42 1.33301 -73.667 2 -95 2c-26 0 -58.667 -1 -98 -3z" />
    <glyph glyph-name="hyphen" unicode="-" horiz-adv-x="528" 
d="M-3 428c6 64.667 9.66895 132 11.002 202c96.667 -2.66699 182.667 -4 258 -4c76 0 162.333 1.33301 259 4c-5.33301 -56.667 -9 -124 -11 -202c-96.667 3.33301 -183.334 5 -260.001 5c-74.667 0 -160.334 -1.66699 -257.001 -5z" />
    <glyph glyph-name="period" unicode="." horiz-adv-x="530" 
d="M106 0c2.66699 48 6.33301 137.667 11 269l152 -2c13.333 0 57 0.666992 131 2c-3.33301 -48.667 -6 -97.667 -8 -147l-6 -122l-131 2c-5.33301 0 -55 -0.666992 -149 -2z" />
    <glyph glyph-name="slash" unicode="/" horiz-adv-x="878" 
d="M-228 -459l351 678l452 887l129 259c43.333 -1.33301 73.333 -2 90 -2c20 0 49.667 0.666992 89 2l-822 -1622l-97 -202c-39.333 1.33301 -69.666 2 -90.999 2c-18.667 0 -52.334 -0.666992 -101.001 -2z" />
    <glyph glyph-name="zero" unicode="0" 
d="M664 1389c105.333 0 195.502 -22.667 270.502 -68s133.167 -117.666 174.5 -216.999s62 -215.333 62 -348c0 -104.667 -12.667 -209 -38 -313s-60.333 -189.333 -105 -256s-105.834 -118.5 -183.501 -155.5s-160.834 -55.5 -249.501 -55.5
c-85.333 0 -161.5 16.5 -228.5 49.5s-121.5 79.333 -163.5 139s-71.333 126.667 -88 201s-25 150.833 -25 229.5c0 108.667 12.667 215.667 38 321s61.833 193.166 109.5 263.499s109.5 122.833 185.5 157.5s156.333 52 241 52zM656.002 1181
c-25.333 0 -50.165 -4.99902 -74.498 -14.999s-48 -26.5 -71 -49.5s-42 -49.833 -57 -80.5s-28.667 -67.834 -41 -111.501s-22 -95.667 -29 -156s-10.5 -121.833 -10.5 -184.5c0 -90.667 9.16699 -164.5 27.5 -221.5s45.666 -101.167 81.999 -132.5s78.166 -47 125.499 -47
c26 0 51.333 5.16699 76 15.5s49.834 29.833 75.501 58.5s48.667 70.5 69 125.5s35.166 115.333 44.499 181s14 132.167 14 199.5c0 92.667 -8.83301 169 -26.5 229s-44.167 106.5 -79.5 139.5s-77 49.5 -125 49.5z" />
    <glyph glyph-name="one" unicode="1" 
d="M507 0c9.33301 102.667 17 219.333 23 350l19 400c6.66699 136 11 253 13 351l-68.5 -43.5l-116.5 -79.5c3.33301 42 6.16602 89 8.49902 141s3.5 92 3.5 120l91 54c37.333 22.667 60.666 37.167 69.999 43.5s22 15.833 38 28.5c39.333 -1.33301 87 -2 143 -2
c54.667 0 106.334 0.666992 155.001 2l-11 -136c-2.66699 -31.333 -5.66699 -76.333 -9 -135l-40 -795l-3 -119c-0.666992 -24.667 -1 -49.667 -1 -75l1 -105c-45.333 1.33301 -94.666 2 -147.999 2c-62 0 -118 -0.666992 -168 -2z" />
    <glyph glyph-name="two" unicode="2" 
d="M97 0c2 25.333 2.99902 45.6631 2.99902 60.9961l6 146c83.333 74.667 159.5 146.834 228.5 216.501l211.5 224c72 79.667 126.333 143.834 163 192.501c30 39.333 50 68.833 60 88.5s16.667 36.334 20 50.001s5 27.5 5 41.5c0 36.667 -11 66.5 -33 89.5
s-52.167 41 -90.5 54s-82.833 19.5 -133.5 19.5c-46.667 0 -97.334 -4.16699 -152.001 -12.5s-125 -23.5 -211 -45.5l19 101c4 24 10 64.333 18 121c154 28 302 42 444 42c64.667 0 127 -6.16699 187 -18.5s113.5 -33.333 160.5 -63s81.333 -64 103 -103
s32.5 -79.833 32.5 -122.5c0 -25.333 -2.5 -50.5 -7.5 -75.5s-12.167 -47.833 -21.5 -68.5c-18 -41.333 -40.833 -83 -68.5 -125s-71 -98 -130 -168s-123.333 -141.667 -193 -215s-147.167 -150.333 -232.5 -231h91l223 1c74 0 128.333 0.833008 163 2.5
s76.334 4.83398 125.001 9.50098c-1.33301 -20.667 -3.5 -47.5 -6.5 -80.5s-6.5 -76.833 -10.5 -131.5c-151.333 1.33301 -308.666 2 -471.999 2c-200 0 -367 -0.666992 -501 -2z" />
    <glyph glyph-name="three" unicode="3" 
d="M125 28c-5.33301 90.667 -12.0039 169.002 -20.0039 235.002c138.667 -50 267 -75 385 -75c58.667 0 111.834 9.33301 159.501 28s85.334 45.5 113.001 80.5s41.5 76.167 41.5 123.5c0 40 -11.5 75.167 -34.5 105.5s-59 53 -108 68s-112.167 22.5 -189.5 22.5
c-49.333 0 -100.333 -3 -153 -9c6.66699 76.667 12 149.334 16 218.001c39.333 -6.66699 78 -10 116 -10c58.667 0 114.5 5.66699 167.5 17s94.167 34.5 123.5 69.5s44 73.167 44 114.5c0 16.667 -2.5 32.834 -7.5 48.501s-12 30 -21 43s-20.333 24.5 -34 34.5
s-28.834 18.167 -45.501 24.5s-39.334 11.5 -68.001 15.5s-59.334 6 -92.001 6c-44 0 -89.5 -2.83301 -136.5 -8.5s-106.833 -16.5 -179.5 -32.5l19 83l24 131c76.667 10.667 141.334 18 194.001 22s109.667 6 171 6c70 0 137.833 -5.66699 203.5 -17
s121.834 -31 168.501 -59s81.167 -64.333 103.5 -109s33.5 -93.667 33.5 -147c0 -34.667 -5 -68.834 -15 -102.501s-24.833 -64.834 -44.5 -93.501s-41.667 -52.334 -66 -71.001s-48.166 -33.667 -71.499 -45s-57.333 -24.666 -102 -39.999
c48 -7.33301 84.667 -15.5 110 -24.5s50.333 -22.667 75 -41s45.667 -39.666 63 -63.999s30.333 -52.333 39 -84s13 -64.834 13 -99.501c0 -62.667 -14.833 -121.834 -44.5 -177.501s-72.667 -101.834 -129 -138.501s-120.5 -62.5 -192.5 -77.5s-147 -22.5 -225 -22.5
c-57.333 0 -116.666 3.66699 -177.999 11s-136.666 21 -225.999 41z" />
    <glyph glyph-name="four" unicode="4" 
d="M633 0c12.667 134 21.334 271.332 26.001 411.999h-202l-368 -6c1.33301 8.66699 3.5 45.834 6.5 111.501s4.5 110.5 4.5 134.5l75 95l87 117l216 296l60.5 88l77.5 117c80.667 -1.33301 147 -2 199 -2c50.667 0 109 0.666992 175 2
c-20 -284.667 -32.333 -532.667 -37 -744c32 -0.666992 70 -1 114 -1c52 0 87 1 105 3c-2 -52 -3 -112 -3 -180v-34c-40.667 2.66699 -115.334 4 -224.001 4c-2 -30.667 -3.5 -58.667 -4.5 -84s-2 -70 -3 -134s-1.5 -110 -1.5 -138v-57c-51.333 1.33301 -100.333 2 -147 2
c-42.667 0 -94.667 -0.666992 -156 -2zM697 610.999c2 38.667 3 61 3 67l19 485c-101.333 -147.333 -168 -242.333 -200 -285l-194 -267h372z" />
    <glyph glyph-name="five" unicode="5" 
d="M160 19l-5.00586 78.999c-1.33301 21.333 -3 42.666 -5 63.999s-5.33301 49.666 -10 84.999c124.667 -36 231.334 -54 320.001 -54c62.667 0 119.834 10.667 171.501 32s92 52.5 121 93.5s43.5 85.167 43.5 132.5c0 41.333 -11.167 77.333 -33.5 108
s-56.666 54.167 -102.999 70.5s-107.166 24.5 -182.499 24.5c-43.333 0 -86 -1.83301 -128 -5.5s-98.333 -10.834 -169 -21.501c28 302 48.333 548 61 738c178.667 -1.33301 325.334 -2 440.001 -2c152 0 296 0.666992 432 2
c-4.66699 -53.333 -7.33398 -93.333 -8.00098 -120l-3 -96c-59.333 4.66699 -151.666 7.33398 -276.999 8.00098l-176 2c-29.333 0 -70 -0.333008 -122 -1l-32 -346c56.667 6.66699 104.667 10 144 10c98 0 186.5 -14.167 265.5 -42.5s137.167 -72.166 174.5 -131.499
s56 -124.666 56 -195.999c0 -70.667 -17.167 -138.167 -51.5 -202.5s-81.833 -116.666 -142.5 -156.999s-130.667 -69.833 -210 -88.5s-160.666 -28 -243.999 -28c-29.333 0 -65.5 2 -108.5 6s-78.833 8.33301 -107.5 13s-65.667 12.667 -111 24z" />
    <glyph glyph-name="six" unicode="6" 
d="M637 829c46 8.66699 86.667 13 122 13c69.333 0 135 -12.833 197 -38.5s110.667 -70 146 -133s53 -132.5 53 -208.5c0 -63.333 -11.833 -125.5 -35.5 -186.5s-60.5 -115.667 -110.5 -164s-110 -83 -180 -104s-143.667 -31.5 -221 -31.5c-68 0 -133.333 8.5 -196 25.5
s-119.167 44.833 -169.5 83.5s-87.666 87.167 -111.999 145.5s-36.5 118.5 -36.5 180.5c0 47.333 5.33301 100 16 158s35 129.167 73 213.5s88.5 176.5 151.5 276.5s134.5 202 214.5 306h364c-96.667 -114 -161.334 -192.333 -194.001 -235
c-46 -60 -89.167 -121.833 -129.5 -185.5s-74.333 -123.5 -102 -179.5s-50.5 -110 -68.5 -162c-10.667 -30 -18.667 -60.333 -24 -91s-8 -60.334 -8 -89.001c0 -73.333 21.167 -131.833 63.5 -175.5s96.833 -65.5 163.5 -65.5c49.333 0 92.666 11.333 129.999 34
s64.833 53.334 82.5 92.001s26.5 80 26.5 124c0 43.333 -8.5 80.833 -25.5 112.5s-45.667 55.334 -86 71.001s-82.5 23.5 -126.5 23.5c-27.333 0 -59.666 -4 -96.999 -12c65.333 107.333 105 174.666 119 201.999z" />
    <glyph glyph-name="seven" unicode="7" 
d="M195 0l232.001 450.999l294 583l59 123c-60 0.666992 -109 1 -147 1c-167.333 0 -328 -4 -482 -12c5.33301 68.667 9 141.667 11 219h962c-4 -73.333 -7 -148.333 -9 -225c0 -0.666992 -3.66699 -7.66699 -11 -21l-10 -19c-16.667 -32 -61.667 -123 -135 -273l-219 -445
c-60.667 -125.333 -119.334 -252.666 -176.001 -381.999c-78.667 0.666992 -137 1 -175 1z" />
    <glyph glyph-name="eight" unicode="8" 
d="M379 698c-41.333 18 -72.8301 34.498 -94.4971 49.498s-42.667 35.5 -63 61.5s-35.5 54.833 -45.5 86.5s-15 66.167 -15 103.5c0 62.667 13.833 120 41.5 172s67.667 94.833 120 128.5s108.166 57 167.499 70s121.666 19.5 186.999 19.5
c63.333 0 124.666 -7.83301 183.999 -23.5s110 -40.5 152 -74.5s72.167 -72.5 90.5 -115.5s27.5 -90.833 27.5 -143.5c0 -26.667 -2.5 -53.167 -7.5 -79.5s-13.833 -52 -26.5 -77s-28.334 -47.667 -47.001 -68s-38.167 -37.833 -58.5 -52.5s-53.5 -32.334 -99.5 -53.001
c44.667 -12 78.167 -23.167 100.5 -33.5s44 -24 65 -41s38.667 -36.667 53 -59s25.333 -47.666 33 -75.999s11.5 -58.166 11.5 -89.499c0 -64 -14.5 -124.833 -43.5 -182.5s-68.5 -104.167 -118.5 -139.5s-109.333 -61.666 -178 -78.999s-138.667 -26 -210 -26
c-69.333 0 -135.666 6.83301 -198.999 20.5s-120 37.167 -170 70.5s-87.167 73.333 -111.5 120s-36.5 100 -36.5 160c0 33.333 4.16699 66.166 12.5 98.499s21.5 63 39.5 92s38.833 53.5 62.5 73.5s47.5 35.833 71.5 47.5s59 24.834 105 39.501zM657.003 1194
c-69.333 0 -125.167 -20.666 -167.5 -61.999s-63.5 -93.333 -63.5 -156c0 -38.667 9.33301 -72.5 28 -101.5s44 -50.5 76 -64.5s67 -21 105 -21c44 0 84 9.16699 120 27.5s64 44.166 84 77.499s30 71 30 113c0 56 -19.167 101.167 -57.5 135.5s-89.833 51.5 -154.5 51.5z
M632.002 600.999c-84.667 0 -149 -20.668 -193 -62.001s-66 -93.333 -66 -156c0 -38.667 9.66699 -74.5 29 -107.5s49 -58.333 89 -76s82.333 -26.5 127 -26.5c46 0 89 9.33301 129 28s71 46.334 93 83.001s33 77.667 33 123c0 60.667 -20.5 108.167 -61.5 142.5
s-100.833 51.5 -179.5 51.5z" />
    <glyph glyph-name="nine" unicode="9" 
d="M344 0c87.333 110.667 160.998 208.336 220.998 293.003c65.333 92.667 121.666 179 168.999 259c34.667 59.333 62.167 114.166 82.5 164.499s34 92.333 41 126s10.5 65.5 10.5 95.5c0 49.333 -9 92.833 -27 130.5s-44.167 66.167 -78.5 85.5s-73.833 29 -118.5 29
c-46 0 -88.667 -10.5 -128 -31.5s-69.666 -50 -90.999 -87s-32 -77.833 -32 -122.5c0 -42.667 7.83301 -79.834 23.5 -111.501s42 -56.334 79 -74.001s80.5 -26.5 130.5 -26.5c20 0 39.167 1.66699 57.5 5s40.5 8.33301 66.5 15c-46.667 -69.333 -91 -138.666 -133 -207.999
c-38 -6.66699 -72 -10 -102 -10c-80 0 -153.833 15.833 -221.5 47.5s-117.167 76.834 -148.5 135.501s-47 123.667 -47 195c0 89.333 22.333 170.666 67 243.999s110.334 130.833 197.001 172.5s186.334 62.5 299.001 62.5c75.333 0 146.666 -10.167 213.999 -30.5
s122.5 -51 165.5 -92s74.667 -89.667 95 -146s30.5 -110.833 30.5 -163.5c0 -39.333 -4.5 -83.333 -13.5 -132s-23.667 -100 -44 -154s-47.833 -115.333 -82.5 -184s-76.5 -140.334 -125.5 -215.001l-184.5 -272c-59.333 0.666992 -117.666 1 -174.999 1z" />
    <glyph glyph-name="colon" unicode=":" horiz-adv-x="530" 
d="M139 748c2.66699 47.333 6.33398 137 11.001 269l152 -2c13.333 0 57.333 0.666992 132 2c-3.33301 -38.667 -6.33301 -88 -9 -148l-6 -121c-63.333 1.33301 -107 2 -131 2c-22.667 0 -72.334 -0.666992 -149.001 -2zM106 0c2.66699 48 6.33301 137.667 11 269l152 -2
c13.333 0 57 0.666992 131 2c-3.33301 -48.667 -6 -97.667 -8 -147l-6 -122l-131 2c-5.33301 0 -55 -0.666992 -149 -2z" />
    <glyph glyph-name="semicolon" unicode=";" horiz-adv-x="530" 
d="M139 748c2 32.667 5.66797 122.333 11.001 269l151 -2c14 0 58 0.666992 132 2c-3.33301 -42 -8 -131.667 -14 -269c-64 1.33301 -107.667 2 -131 2c-22.667 0 -72.334 -0.666992 -149.001 -2zM-6.99902 -237.001l150 434c72.667 -1.33301 124 -2 154 -2
c24 0 73.333 0.666992 148 2l-84.5 -139.5l-91 -152.5l-83.5 -141c-42 1.33301 -73.667 2 -95 2c-26 0 -58.667 -1 -98 -3z" />
    <glyph glyph-name="less" unicode="&#x3c;" horiz-adv-x="1024" 
d="M955 1247v-255l-614 -303l613 -304l1 -253l-887 450v216z" />
    <glyph glyph-name="equal" unicode="=" 
d="M129 956c196 -2.66699 370.334 -4 523.001 -4c153.333 0 328.333 1.33301 525 4c-4.66699 -39.333 -8.33398 -100 -11.001 -182c-196 2.66699 -370.333 4 -523 4c-153.333 0 -328.333 -1.33301 -525 -4c5.33301 56 9 116.667 11 182zM108.001 632
c190.667 -2.66699 365.337 -4 524.004 -4c160.667 0 335.667 1.33301 525 4c-4.66699 -46.667 -8.33398 -107 -11.001 -181c-188.667 2.66699 -363.334 4 -524.001 4s-335.334 -1.33301 -524.001 -4c5.33301 50 8.66602 110.333 9.99902 181z" />
    <glyph glyph-name="greater" unicode="&#x3e;" horiz-adv-x="1024" 
d="M69 132v255l614 303l-613 304l-1 253l887 -450v-216z" />
    <glyph glyph-name="question" unicode="?" horiz-adv-x="1012" 
d="M309 349l6.00684 99.001c2 33.333 4.66699 62.333 8 87s7.16602 44 11.499 58s10.5 28 18.5 42s21.667 32.833 41 56.5s48.666 57.167 87.999 100.5l84 92c18 19.333 33.167 38.666 45.5 57.999s20.5 35.5 24.5 48.5s6 26.5 6 40.5c0 32 -10.667 59.833 -32 83.5
s-52 40.667 -92 51s-83.667 15.5 -131 15.5c-44.667 0 -91.834 -3.83301 -141.501 -11.5s-112.167 -22.5 -187.5 -44.5c20.667 100.667 34.667 178.334 42 233.001c136 20.667 264.333 31 385 31c63.333 0 124.666 -5.66699 183.999 -17s111.666 -30.5 156.999 -57.5
s80.166 -61.167 104.499 -102.5s36.5 -84.333 36.5 -129c0 -24.667 -2.83301 -49 -8.5 -73s-14.667 -48.333 -27 -73s-28 -50.5 -47 -77.5s-39.833 -52.833 -62.5 -77.5l-92 -96c-38.667 -39.333 -61.667 -63.333 -69 -72c-16.667 -18.667 -29.334 -35.5 -38.001 -50.5
s-15.667 -30.5 -21 -46.5s-10 -34.833 -14 -56.5s-8.66699 -58.834 -14 -111.501c-47.333 1.33301 -90.333 2 -129 2c-42 0 -87.333 -0.666992 -136 -2zM270.007 0.000976562c6.66699 80.667 13 165 19 253c67.333 -1.33301 118.333 -2 153 -2
c37.333 0 87.333 0.666992 150 2c-4.66699 -59.333 -7.66699 -108.5 -9 -147.5s-3.33301 -74.167 -6 -105.5c-71.333 1.33301 -121 2 -149 2s-80.667 -0.666992 -158 -2z" />
    <glyph glyph-name="at" unicode="@" horiz-adv-x="1725" 
d="M1252 994l-16.0049 -77.0029l-13 -83c-8.66699 -52.667 -17.167 -100.334 -25.5 -143.001s-13.833 -73.5 -16.5 -92.5s-4.33398 -32.5 -5.00098 -40.5s-1 -14.667 -1 -20c0 -19.333 5.33301 -34 16 -44s24.334 -15 41.001 -15c35.333 0 74.333 17.5 117 52.5
s77.167 82.333 103.5 142s39.5 122.834 39.5 189.501c0 58.667 -11.333 114.167 -34 166.5s-59.667 96.333 -111 132s-110.666 61 -177.999 76s-136.333 22.5 -207 22.5c-94.667 0 -185.167 -13.167 -271.5 -39.5s-163.166 -70.166 -230.499 -131.499
s-119.666 -136 -156.999 -224s-56 -179.333 -56 -274c0 -72.667 11.833 -140.5 35.5 -203.5s60 -116.167 109 -159.5s109 -74.666 180 -93.999s146.167 -29 225.5 -29c80.667 0 152.667 7 216 21s127.666 41.333 192.999 82c8.66699 -38 19 -76.667 31 -116
c-64 -40 -132.833 -69.333 -206.5 -88s-155.167 -28 -244.5 -28c-98.667 0 -193 13.333 -283 40s-164.833 66.334 -224.5 119.001s-104 117 -133 193s-43.5 158 -43.5 246c0 114.667 22.667 225.834 68 333.501s107 197.834 185 270.501s170.667 126 278 160s220 51 338 51
c91.333 0 179 -10.833 263 -32.5s156 -55.667 216 -102s106 -104 138 -173s48 -142.167 48 -219.5c0 -92 -22.167 -178.333 -66.5 -259s-105.333 -145.834 -183 -195.501s-158.167 -74.5 -241.5 -74.5c-28 0 -54.833 4 -80.5 12s-46.667 20.667 -63 38
s-25.833 37.666 -28.5 60.999c-26.667 -26 -44.667 -43 -54 -51s-24.166 -17 -44.499 -27s-43.166 -18 -68.499 -24s-50 -9 -74 -9c-46.667 0 -88.5 11 -125.5 33s-64.833 52 -83.5 90s-28 82.333 -28 133c0 72 19.667 145 59 219s94.5 128.5 165.5 163.5
s161.5 52.5 271.5 52.5c34 0 69.833 -2 107.5 -6s88.834 -12 153.501 -24zM1032 867.997c-30.667 6.66699 -58.666 10.001 -83.999 10.001c-51.333 0 -96.833 -11.167 -136.5 -33.5s-70.667 -56 -93 -101s-33.5 -89.833 -33.5 -134.5c0 -23.333 4.16699 -45.333 12.5 -66
s22.166 -37.334 41.499 -50.001s41.333 -19 66 -19c41.333 0 79.333 15.333 114 46s59 72.667 73 126c10.667 38 24 112 40 222z" />
    <glyph glyph-name="A" unicode="A" horiz-adv-x="1542" 
d="M-63 0c69.333 122.667 150.668 274.332 244.001 454.999l263 505c82 156 150 291 204 405c86.667 -1.33301 148 -2 184 -2c63.333 0 125.333 0.666992 186 2l143 -409l311 -846l43 -110l-150 2c-34.667 0 -93 -0.666992 -175 -2c-16 59.333 -41.167 139.333 -75.5 240
s-63.5 182.334 -87.5 245.001h-526l-228 -485l-163 2c-30.667 0 -88.334 -0.666992 -173.001 -2zM590.002 692.998h383l-157 462l-81 -168z" />
    <glyph glyph-name="B" unicode="B" horiz-adv-x="1339" 
d="M120 0c12.667 141.333 21.3359 257.002 26.0029 347.002s10.667 243.667 18 461s11 366.666 11 447.999c0 24.667 -0.333008 61 -1 109c84 -1.33301 153.667 -2 209 -2c56 0 125 1 207 3s149.667 3 203 3c74.667 0 130.834 -3.16699 168.501 -9.5
s71.167 -15.833 100.5 -28.5s54 -28.167 74 -46.5s37.167 -40 51.5 -65s25 -52 32 -81s10.5 -58.5 10.5 -88.5c0 -37.333 -4.5 -72.833 -13.5 -106.5s-22 -64 -39 -91s-36.833 -50 -59.5 -69s-44.334 -33.833 -65.001 -44.5s-48.334 -22 -83.001 -34
c31.333 -6.66699 56.333 -13.167 75 -19.5s38.667 -16 60 -29s41.5 -29.667 60.5 -50s34.167 -41.833 45.5 -64.5s20.166 -47.834 26.499 -75.501s9.5 -56.5 9.5 -86.5c0 -64 -13.833 -122.667 -41.5 -176s-65.834 -95.5 -114.501 -126.5s-103.167 -51.667 -163.5 -62
s-188.5 -15.5 -384.5 -15.5l-242 1zM447.002 799.002l160.999 0.00292969c68.667 0 114.834 1.66699 138.501 5s48.5 9.83301 74.5 19.5s48 24.667 66 45s31.167 42.666 39.5 66.999s12.5 49.166 12.5 74.499c0 24.667 -4.5 48 -13.5 70s-22.833 40.167 -41.5 54.5
s-41.167 24.666 -67.5 30.999s-64.833 9.5 -115.5 9.5h-240zM423.001 196.005l227.002 -0.000976562c46 0 81.833 1.83301 107.5 5.5s50.167 10.167 73.5 19.5s41.666 19.333 54.999 30s25.166 24.334 35.499 41.001s18.5 35.5 24.5 56.5s9 42.833 9 65.5
c0 30.667 -5.33301 57.667 -16 81s-26.5 43.5 -47.5 60.5s-45.5 29.333 -73.5 37s-70.667 11.5 -128 11.5h-252z" />
    <glyph glyph-name="C" unicode="C" horiz-adv-x="1329" 
d="M1235 250c-14.667 -78 -27.3359 -157.333 -38.0029 -238c-76 -13.333 -145.667 -22.666 -209 -27.999s-117.666 -8 -162.999 -8c-100 0 -195.5 14 -286.5 42s-173 72.167 -246 132.5s-125.833 133.5 -158.5 219.5s-49 180 -49 282c0 110.667 19.667 213 59 307
s95.833 173.333 169.5 238s160.834 112.834 261.501 144.501s205.667 47.5 315 47.5c108 0 226 -12.333 354 -37c2 -59.333 4 -101.333 6 -126l7 -107c-75.333 20 -138 33.667 -188 41s-97.667 11 -143 11c-71.333 0 -139.833 -10.833 -205.5 -32.5
s-123.667 -56.167 -174 -103.5s-89 -104.5 -116 -171.5s-40.5 -136.833 -40.5 -209.5c0 -86.667 16.667 -164.334 50 -233.001s86.833 -124.334 160.5 -167.001s164.834 -64 273.501 -64c100.667 0 221 20 361 60z" />
    <glyph glyph-name="D" unicode="D" horiz-adv-x="1546" 
d="M119 0l27.002 348.002l20 435l13 433c0.666992 18.667 1 68.334 1 149.001c74 -1.33301 143.667 -2 209 -2c48.667 0 112.834 1 192.501 3s148.5 3 206.5 3c78.667 0 151.5 -4.66699 218.5 -14s125.5 -26.833 175.5 -52.5s93.333 -57.834 130 -96.501
s66.667 -81.5 90 -128.5s41.166 -99.333 53.499 -157s18.5 -116.5 18.5 -176.5c0 -114.667 -19.833 -223.834 -59.5 -327.501s-98.834 -189.334 -177.501 -257.001s-165.834 -111.167 -261.501 -130.5s-204.167 -29 -325.5 -29l-340 2c-21.333 0 -85 -0.666992 -191 -2z
M426.002 213.002c54.667 -2.66699 108.665 -4 161.998 -4c60.667 0 116.834 3 168.501 9s96.167 15.5 133.5 28.5s74.833 35.833 112.5 68.5s68.5 70.5 92.5 113.5s42.333 90.833 55 143.5s19 106.334 19 161.001c0 100 -17 182.167 -51 246.5
s-78.833 110.666 -134.5 138.999s-141.5 42.5 -257.5 42.5c-75.333 0 -161.666 -1.33301 -258.999 -4z" />
    <glyph glyph-name="E" unicode="E" horiz-adv-x="1251" 
d="M117 0l28.998 383.001l21 443l13 403v136c164.667 -1.33301 336.334 -2 515.001 -2l192 1l289 1l-12 -216l-95 5c-26 1.33301 -62 2.33301 -108 3s-93 1 -141 1c-104 0 -171.167 -0.166992 -201.5 -0.5s-76.166 -1.5 -137.499 -3.5l-16 -355c91.333 -2 183.333 -3 276 -3
c64 0 172 2 324 6c-5.33301 -60.667 -10 -133.334 -14 -218.001c-178 2 -280 3 -306 3c-78.667 0 -176.667 -2 -294 -6l-16 -374l110 -1c32 0 105.333 0.666992 220 2l217 4l145 7c-6.66699 -77.333 -11.334 -150.333 -14.001 -219c-173.333 1.33301 -329.666 2 -468.999 2
l-329 -1z" />
    <glyph glyph-name="F" unicode="F" horiz-adv-x="1171" 
d="M120 0c12 130.667 20.002 235.667 24.002 315c7.33301 132.667 15 322.667 23 570c6 182.667 9 311.667 9 387v93c191.333 -1.33301 358.666 -2 501.999 -2l280 1l167 1c-7.33301 -99.333 -11.333 -171.333 -12 -216l-143 5l-58 1h-78h-152l-207 -1l-12 -359l170 -3
c129.333 0 212.333 0.333008 249 1l136 2c-4.66699 -77.333 -7.66699 -148 -9 -212c-116 2.66699 -208.333 4 -277 4c-86.667 0 -180.334 -1.33301 -281.001 -4l-11 -442l-1 -90v-51l-153 2c-8 0 -63.333 -0.666992 -166 -2z" />
    <glyph glyph-name="G" unicode="G" horiz-adv-x="1561" 
d="M905 780c92 -1.33301 179.993 -1.99707 263.993 -1.99707c110 0 201.667 0.666992 275 2c-17.333 -223.333 -29.666 -471.333 -36.999 -744c-110.667 -22 -210.667 -37.5 -300 -46.5s-165.333 -13.5 -228 -13.5c-117.333 0 -226.166 12.333 -326.499 37
s-185.166 64.667 -254.499 120s-122.166 128.166 -158.499 218.499s-54.5 185.833 -54.5 286.5c0 86 13.5 169 40.5 249s67 153.333 120 220s117 122.167 192 166.5s154.667 74.666 239 90.999s173.5 24.5 267.5 24.5c129.333 0 278 -17.333 446 -52
c0.666992 -76 4.33398 -155.667 11.001 -239c-157.333 53.333 -299.666 80 -426.999 80c-82 0 -159.5 -11.667 -232.5 -35s-136 -59.5 -189 -108.5s-93.333 -109.667 -121 -182s-41.5 -147.166 -41.5 -224.499c0 -86 15.833 -162.833 47.5 -230.5
s84.834 -120.167 159.501 -157.5s160.334 -56 257.001 -56c35.333 0 77 3.16699 125 9.5s98 17.166 150 32.499l16 351l-79 1c-44.667 0 -101.334 -1 -170.001 -3c6 89.333 9 157.666 9 204.999z" />
    <glyph glyph-name="H" unicode="H" horiz-adv-x="1590" 
d="M120 0l22.998 359c12.667 196 21.667 377.833 27 545.5s8 284.5 8 350.5l-1 110c78.667 -1.33301 134.334 -2 167.001 -2c24.667 0 75 0.666992 151 2l-26 -451l-3 -104l682 1l12 270c2.66699 92.667 4 153.667 4 183v101l167 -2c14.667 0 64.667 0.666992 150 2
l-33 -545l-15 -404l-4 -237c-1.33301 -97.333 -2 -157 -2 -179l-156 2c-19.333 0 -74.666 -0.666992 -165.999 -2c17.333 188.667 28.333 387 33 595h-683l-14 -368l-4 -227l-164 2c-18 0 -69 -0.666992 -153 -2z" />
    <glyph glyph-name="I" unicode="I" horiz-adv-x="602" 
d="M120 0c16 229.333 28.999 464.5 38.999 705.5s15 425.167 15 552.5l-1 107l167 -2c9.33301 0 60.333 0.666992 153 2c-27.333 -350.667 -44.666 -805.667 -51.999 -1365l-147 2c-24.667 0 -82.667 -0.666992 -174 -2z" />
    <glyph glyph-name="J" unicode="J" horiz-adv-x="954" 
d="M-26 22c-4 76.667 -9.99805 156.333 -17.998 239c72.667 -24 129.834 -40.333 171.501 -49s81.834 -13 120.501 -13c31.333 0 61.666 4.33301 90.999 13c26 7.33301 49 17 69 29c14.667 10 27 21 37 33c14.667 17.333 26.667 37.333 36 60
c9.33301 24 16.666 56.667 21.999 98c7.33301 54.667 13.666 145.334 18.999 272.001c4 99.333 7.66699 210.666 11 333.999c2.66699 103.333 4 212.333 4 327c79.333 -1.33301 130.333 -2 153 -2c26.667 0 80 0.666992 160 2l-27 -429c-5.33301 -103.333 -11 -245 -17 -425
c-4 -123.333 -10.667 -207.666 -20 -252.999c-6.66699 -34.667 -17 -65.334 -31 -92.001c-12.667 -24 -28.334 -45.333 -47.001 -64c-22 -21.333 -48.667 -40.333 -80 -57c-40.667 -22 -84 -38.333 -130 -49c-51.333 -12.667 -107 -19 -167 -19c-102 0 -221 15 -357 45z" />
    <glyph glyph-name="K" unicode="K" horiz-adv-x="1374" 
d="M118 0c11.333 130.667 19.668 243.334 25.001 338.001c8 135.333 17 326.666 27 573.999c6.66699 169.333 10 289.333 10 360v93c82.667 -1.33301 137 -2 163 -2c17.333 0 68.666 0.666992 153.999 2l-31 -540l-27 -647l-3 -178l-155 2c-18.667 0 -73 -0.666992 -163 -2z
M481.002 722l227.001 279l207 263l74 101l180 -2c7.33301 0 64.666 0.666992 171.999 2l-460 -541l-78 -97l63 -90l198 -260l291 -377l-178 2c-31.333 0 -96.333 -0.666992 -195 -2l-64 100c-12 19.333 -33.333 51 -64 95l-272 388z" />
    <glyph glyph-name="L" unicode="L" horiz-adv-x="1100" 
d="M111 0c20 200.667 36 424.166 48 670.499s19 477.833 21 694.5c68 -1.33301 124.667 -2 170 -2c30.667 0 79.667 0.666992 147 2c-8.66699 -120 -16.667 -256.667 -24 -410l-20 -401c-6 -114.667 -10.333 -228.667 -13 -342l172 -2c161.333 0 267.333 0.5 318 1.5
s100.667 2.83301 150 5.5c-6 -65.333 -11.333 -137.666 -16 -216.999c-175.333 1.33301 -325.333 2 -450 2l-315 -1z" />
    <glyph glyph-name="M" unicode="M" horiz-adv-x="1815" 
d="M93 0l26.002 226l66 794l23 345c95.333 -1.33301 165 -2 209 -2c35.333 0 99.666 0.666992 192.999 2c10.667 -54 18.667 -92.333 24 -115s15.666 -59 30.999 -109s35 -110.667 59 -182c35.333 -108 67 -214.667 95 -320l76 -286l134 367l195 477
c6.66699 16 13.5 34.5 20.5 55.5s18.833 58.5 35.5 112.5c79.333 -1.33301 150 -2 212 -2c41.333 0 107.333 0.666992 198 2c-9.33301 -192 -16.333 -404.167 -21 -636.5s-7 -405.833 -7 -520.5c0 -55.333 0.666992 -124.666 2 -207.999c-66 1.33301 -111 2 -135 2
c-34.667 0 -80.667 -0.666992 -138 -2c4 68 6.66699 124 8 168l17 595c2 84 3 166.667 3 248l-1 81l-369 -973l-43 -119c-64.667 1.33301 -109 2 -133 2c-30 0 -77 -0.666992 -141 -2l-172 616c-6 22 -20 68 -42 138l-62 204c-6 19.333 -10.5 35.166 -13.5 47.499
l-19.5 82.5l-13 -128c-3.33301 -40.667 -8.33301 -108.667 -15 -204l-39 -620c-1.33301 -30.667 -2.33301 -76 -3 -136l-129 2c-22 0 -65.667 -0.666992 -131 -2z" />
    <glyph glyph-name="N" unicode="N" horiz-adv-x="1611" 
d="M118 0c12.667 119.333 22.333 253.332 29 401.999l23 490c8 177.333 12 335 12 473c77.333 -1.33301 143 -2 197 -2c40 0 98.333 0.666992 175 2c75.333 -131.333 179.333 -302.666 312 -513.999l321 -525l37 928c0.666992 22 1 59 1 111c62.667 -1.33301 110 -2 142 -2
c12.667 0 59.334 0.666992 140.001 2l-25 -367l-31 -628l-12 -370c-69.333 1.33301 -128.333 2 -177 2c-38.667 0 -101.334 -0.666992 -188.001 -2l-76 132l-175 272l-220 348l-166 272c-5.33301 -108 -13.666 -308.333 -24.999 -601
c-4.66699 -119.333 -8.33398 -260.333 -11.001 -423c-62.667 1.33301 -108 2 -136 2c-22 0 -71 -0.666992 -147 -2z" />
    <glyph glyph-name="O" unicode="O" horiz-adv-x="1709" 
d="M894 1389c99.333 0 194.666 -13.6641 285.999 -40.9971s172.333 -71.833 243 -133.5s124 -133.5 160 -215.5s54 -177.667 54 -287c0 -102.667 -17 -200.834 -51 -294.501s-86.667 -174.334 -158 -242.001s-158.166 -117.834 -260.499 -150.501s-209.833 -49 -322.5 -49
c-106.667 0 -209.167 15 -307.5 45s-183 77 -254 141s-121.833 137.5 -152.5 220.5s-46 172.833 -46 269.5c0 106 19.167 207.333 57.5 304s94.666 176.667 168.999 240s161.333 111.333 261 144s206.834 49 321.501 49zM878 1176
c-100.667 0 -188.331 -23.1689 -262.998 -69.502s-130.834 -109.666 -168.501 -189.999s-56.5 -167.166 -56.5 -260.499c0 -86.667 18.167 -166.5 54.5 -239.5s92.166 -128.667 167.499 -167s156.666 -57.5 243.999 -57.5c66 0 129 11.333 189 34
s111.833 57.167 155.5 103.5s76.5 102.166 98.5 167.499s33 133.333 33 204c0 66 -9.83301 129.333 -29.5 190s-50.167 112.834 -91.5 156.501s-91.166 76 -149.499 97s-119.5 31.5 -183.5 31.5z" />
    <glyph glyph-name="P" unicode="P" horiz-adv-x="1206" 
d="M120 0l18.001 236.998l25 525l12 381c0.666992 34.667 1 69.667 1 105c0 26 -0.333008 65 -1 117c85.333 -1.33301 154.666 -2 207.999 -2c42.667 0 102 1 178 3s136.333 3 181 3c92 0 159.667 -6.66699 203 -20c46 -14.667 86.333 -37.667 121 -69s61 -69 79 -113
c20 -49.333 30 -102.333 30 -159c0 -86 -21.5 -164.167 -64.5 -234.5s-102.5 -122.833 -178.5 -157.5s-160.333 -52 -253 -52c-45.333 0 -93.666 4.66699 -144.999 14c-14.667 69.333 -31.334 134.333 -50.001 195c41.333 -8.66699 82.333 -13 123 -13
c55.333 0 103.333 8.33301 144 25s73 43.834 97 81.501s36 80.167 36 127.5c0 28 -5 53.667 -15 77s-24.5 42 -43.5 56s-40 23.5 -63 28.5s-55.833 7.5 -98.5 7.5c-37.333 0 -75 -0.666992 -113 -2s-71.667 -2 -101 -2c-8 -130.667 -14 -255.667 -18 -375l-12 -382
c-4 -135.333 -6 -234.666 -6 -297.999c0 -24 0.333008 -58.667 1 -104l-145 2c-18.667 0 -68.667 -0.666992 -150 -2z" />
    <glyph glyph-name="Q" unicode="Q" horiz-adv-x="1730" 
d="M1657 261c-8.66699 -40 -16.667 -79.998 -24 -119.998l-19 -109c-116.667 -17.333 -242.167 -31 -376.5 -41s-248.833 -15 -343.5 -15c-110.667 0 -214.5 12.167 -311.5 36.5s-184.167 66.833 -261.5 127.5s-136 133.667 -176 219s-60 184 -60 296
c0 111.333 19.5 213 58.5 305s96.167 171 171.5 237s162.833 114.5 262.5 145.5s205.167 46.5 316.5 46.5c100.667 0 197.667 -14.5 291 -43.5s173.666 -74 240.999 -135s119 -134.167 155 -219.5s54 -174 54 -266c0 -46.667 -4.66699 -92.334 -14 -137.001
s-22.666 -87.334 -39.999 -128.001s-37 -76 -59 -106s-44.5 -56 -67.5 -78s-50.833 -46.333 -83.5 -73c64 7.33301 109.667 13.833 137 19.5s77 18.5 149 38.5zM880 1175c-96.667 0 -184.168 -22.5 -262.501 -67.5s-137.5 -108 -177.5 -189s-60 -166.167 -60 -255.5
c0 -100 20.333 -185 61 -255s96.834 -123.167 168.501 -159.5s150.167 -54.5 235.5 -54.5c92 0 176.5 21 253.5 63s135 102.5 174 181.5s58.5 167.167 58.5 264.5c0 70.667 -10.333 135.167 -31 193.5s-50.5 108.333 -89.5 150s-87.833 73.5 -146.5 95.5s-120 33 -184 33z
" />
    <glyph glyph-name="R" unicode="R" horiz-adv-x="1292" 
d="M116 0c20 198.667 35.001 426.998 45.001 684.998s15 484.667 15 680c80 -1.33301 147 -2 201 -2c58 0 114.833 1 170.5 3s114.5 3 176.5 3c77.333 0 146.5 -4.33301 207.5 -13s115.167 -28.667 162.5 -60s82.5 -69.333 105.5 -114s34.5 -96.667 34.5 -156
c0 -37.333 -4.33301 -72.833 -13 -106.5s-21.5 -65.334 -38.5 -95.001s-37.167 -55.667 -60.5 -78s-46.5 -40 -69.5 -53s-49.167 -24.167 -78.5 -33.5s-68.666 -20.666 -117.999 -33.999l68 -132c22 -42 63.667 -117.333 125 -226l101 -177
c5.33301 -9.33301 21.333 -39.666 48 -90.999c-81.333 1.33301 -135 2 -161 2c-32 0 -88.333 -0.666992 -169 -2l-111 266l-70 144l-121 243c-12 22.667 -28.667 56.667 -50 102c44.667 -8 85.334 -12 122.001 -12c57.333 0 109.666 9.33301 156.999 28
s83.666 47.5 108.999 86.5s38 81.5 38 127.5c0 28 -5.5 54 -16.5 78s-29.5 44.333 -55.5 61s-57 27.334 -93 32.001s-72 7 -108 7c-20 0 -47.333 -0.333008 -82 -1s-77.334 -1 -128.001 -1l-18 -411l-19 -750l-155 2c-24.667 0 -75 -0.666992 -151 -2z" />
    <glyph glyph-name="S" unicode="S" horiz-adv-x="1050" 
d="M83 29c-5.33301 101.333 -12.333 184.004 -21 248.004c130.667 -59.333 249.334 -89 356.001 -89c42.667 0 82.5 6.5 119.5 19.5s64.333 31.333 82 55s26.5 50.167 26.5 79.5c0 22.667 -4 43 -12 61c-12 24.667 -32 50.334 -60 77.001
c-38.667 36.667 -107.667 97 -207 181c-47.333 40.667 -80 69.667 -98 87c-40 38 -70.667 72.167 -92 102.5s-36.666 60.5 -45.999 90.5s-14 62 -14 96c0 62.667 17.5 121.5 52.5 176.5s87.333 98 157 129s157.5 46.5 263.5 46.5c95.333 0 202.666 -11.667 321.999 -35
c3.33301 -69.333 10 -148.666 20 -237.999c-104 40 -200 60 -288 60c-65.333 0 -118.833 -14.833 -160.5 -44.5s-62.5 -64.167 -62.5 -103.5c0 -10.667 1.33301 -21.834 4 -33.501s6.66699 -23 12 -34s14.833 -25.333 28.5 -43s33.667 -38.334 60 -62.001
s48.833 -42.834 67.5 -57.501l139 -112c31.333 -26 59.333 -51.333 84 -76s45.834 -48.334 63.501 -71.001s31.5 -44.334 41.5 -65.001s17.5 -41.834 22.5 -63.501s7.5 -44.5 7.5 -68.5c0 -56 -13 -108.833 -39 -158.5s-63.333 -90.5 -112 -122.5s-102 -54.167 -160 -66.5
s-119.333 -18.5 -184 -18.5c-42.667 0 -92.334 3.66699 -149.001 11s-131.334 21.333 -224.001 42z" />
    <glyph glyph-name="T" unicode="T" horiz-adv-x="1180" 
d="M409 0l22.001 292.001l22 435l14 428h-70l-65 -1l-62 -1l-231 -7c5.33301 96 8.33301 169 9 219c192 -1.33301 393 -2 603 -2l359 1l192 1c-6.66699 -94 -10 -166.333 -10 -217c-120.667 6 -236.334 9 -347.001 9h-77l-12 -183l-29 -704l-2 -118
c-0.666992 -48.667 -1 -99.334 -1 -152.001l-152 2c-16.667 0 -71 -0.666992 -163 -2z" />
    <glyph glyph-name="U" unicode="U" horiz-adv-x="1538" 
d="M173 1365c77.333 -1.33301 129.666 -1.99707 156.999 -1.99707c34 0 84.667 0.666992 152 2l-47 -807c-0.666992 -9.33301 -1 -19.333 -1 -30c0 -90 12.833 -157.667 38.5 -203s63.334 -78.333 113.001 -99s106.5 -31 170.5 -31c40.667 0 79.334 4.66699 116.001 14
c30 8 57.333 19 82 33c20 12 37.667 26 53 42c18 19.333 33 41.666 45 66.999c12.667 24.667 22 52.667 28 84c8.66699 47.333 16.667 129.666 24 246.999l21 348c4.66699 101.333 8.33398 213 11.001 335c75.333 -1.33301 131.333 -2 168 -2l146 2l-31 -482l-20 -383
c-6 -89.333 -15.333 -156 -28 -200c-10.667 -36.667 -25.667 -70.667 -45 -102c-18.667 -28 -41 -53 -67 -75c-33.333 -28.667 -72.333 -53.334 -117 -74.001c-50 -23.333 -103 -40.333 -159 -51c-77.333 -14.667 -157 -22 -239 -22c-84 0 -162.667 7.66699 -236 23
c-62.667 13.333 -120.167 34 -172.5 62s-93.833 59.333 -124.5 94c-24.667 28 -44.334 63 -59.001 105c-16.667 46.667 -25 98.667 -25 156c0 20 0.666992 45.833 2 77.5s3.66602 72.5 6.99902 122.5l9 141c3.33301 44 7 108.667 11 194l10 217c2.66699 59.333 5 125 7 197z
" />
    <glyph glyph-name="V" unicode="V" horiz-adv-x="1456" 
d="M493 0l-38 126c-5.33301 16.667 -27.333 80.334 -66 191.001l-194 552l-178 496c68.667 -1.33301 125.667 -2 171 -2c28 0 77 0.666992 147 2l31 -111c6.66699 -22.667 16.334 -53.334 29.001 -92.001l242 -733l57 -187l54 122c13.333 30 41 88.667 83 176l315 658
c9.33301 19.333 18.666 39.833 27.999 61.5l44 105.5c72.667 -1.33301 128 -2 166 -2c22.667 0 75 0.666992 157 2l-86 -160l-547 -1080l-58 -125c-86.667 1.33301 -144.667 2 -174 2c-26 0 -87 -0.666992 -183 -2z" />
    <glyph glyph-name="W" unicode="W" horiz-adv-x="2156" 
d="M516 0l-509.004 1365c64 -1.33301 116 -2 156 -2c44 0 96 0.666992 156 2l280 -828l117 -326c25.333 49.333 63.5 128.5 114.5 237.5s87.5 189.5 109.5 241.5l-116.5 339l-123.5 336c56.667 -1.33301 106.334 -2 149.001 -2c47.333 0 97 0.666992 149 2
c31.333 -120.667 66 -240 104 -358c56 120.667 107.333 240 154 358c58 -1.33301 104.667 -2 140 -2c40.667 0 87.334 0.666992 140.001 2l-158.5 -327c-63 -132.667 -113.833 -243.334 -152.5 -332.001c14.667 -48 42 -129.333 82 -244s69.333 -195.667 88 -243l269 572
l195 428l64 146c64 -1.33301 115.333 -2 154 -2c42.667 0 94.334 0.666992 155.001 2l-188 -373l-393 -806l-88 -186c-71.333 1.33301 -132.333 2 -183 2c-53.333 0 -114.666 -0.666992 -183.999 -2c-39.333 134.667 -82.666 267 -129.999 397
c-63.333 -130 -123.333 -262.333 -180 -397c-71.333 1.33301 -133 2 -185 2c-54.667 0 -116.334 -0.666992 -185.001 -2z" />
    <glyph glyph-name="X" unicode="X" horiz-adv-x="1312" 
d="M-68 0l73.999 93l119 153l270 355l85 118l-122 197l-295 449c65.333 -1.33301 128 -2 188 -2c48 0 103 0.666992 165 2c42.667 -78.667 91.167 -160.334 145.5 -245.001s96.166 -154 125.499 -208c36.667 56 88.667 129.833 156 221.5s120 168.834 158 231.501
c54.667 -1.33301 110 -2 166 -2c36 0 91.333 0.666992 166 2l-223.5 -294.5l-274.5 -368.5c90.667 -150 241.334 -384 452.001 -702c-78 1.33301 -134.667 2 -170 2c-57.333 0 -119 -0.666992 -185 -2c-37.333 70.667 -87.666 156.667 -150.999 258
s-113.333 184.333 -150 249c-37.333 -56.667 -92.833 -134.667 -166.5 -234s-138.167 -190.333 -193.5 -273c-72.667 1.33301 -128 2 -166 2c-42 0 -99.667 -0.666992 -173 -2z" />
    <glyph glyph-name="Y" unicode="Y" horiz-adv-x="1201" 
d="M395 0c8 74 16.168 170.666 24.501 289.999s13.166 214.333 14.499 285l-448 790c75.333 -1.33301 134 -2 176 -2c40 0 93.333 0.666992 160 2c30 -69.333 73.667 -157.166 131 -263.499s106.666 -203.833 147.999 -292.5l297 480l44 76c64.667 -1.33301 122 -2 172 -2
c26 0 79.667 0.666992 161 2l-546 -811l-12 -253c-4 -74.667 -7 -175 -9 -301c-71.333 1.33301 -123.333 2 -156 2c-33.333 0 -85.666 -0.666992 -156.999 -2z" />
    <glyph glyph-name="Z" unicode="Z" horiz-adv-x="1268" 
d="M45 0c6 90.667 9.32812 165.999 9.99512 225.999l47 52c2 2 30.333 36 85 102l490 587l155 192l-66 1h-25l-87 1h-152c-125.333 0 -247.666 -3.66699 -366.999 -11c4 52 6 108 6 168c0 11.333 -0.333008 27 -1 47c174 -1.33301 358.667 -2 554 -2l334 1l182 1
c-5.33301 -72.667 -8.66602 -147 -9.99902 -223l-68 -75c-13.333 -14.667 -26.333 -30 -39 -46l-357 -437l-313 -374l80 -1c225.333 0 370.333 0.666992 435 2s135.334 4.33301 212.001 9c-5.33301 -93.333 -8.66602 -166.666 -9.99902 -219.999
c-191.333 1.33301 -366.666 2 -525.999 2l-369 -1z" />
    <glyph glyph-name="bracketleft" unicode="[" horiz-adv-x="707" 
d="M209 1365c84.667 -1.33301 159.33 -1.99902 223.997 -1.99902c65.333 0 140 0.666992 224 2c-2 -14.667 -4 -45.334 -6 -92.001l-3 -70c-34.667 1.33301 -69 2 -103 2c-34.667 0 -69 -0.666992 -103 -2c-29.333 -502 -50.666 -1002.33 -63.999 -1501
c34.667 -1.33301 69 -2 103 -2s68 0.666992 102 2c-4 -37.333 -6.66699 -91 -8 -161c-61.333 1.33301 -135.666 2 -222.999 2s-161.666 -0.666992 -222.999 -2l34 578l29 675z" />
    <glyph glyph-name="backslash" unicode="\" horiz-adv-x="865" 
d="M1021 -459c-48 1.33301 -81 2 -99 2c-22 0 -51.667 -0.666992 -89 -2l-80 193l-448 1018l-273 613c38.667 -1.33301 67.334 -2 86.001 -2c17.333 0 46.666 0.666992 87.999 2l98 -228l595 -1332z" />
    <glyph glyph-name="bracketright" unicode="]" horiz-adv-x="707" 
d="M461 -459c-79.333 1.33301 -154.331 1.99902 -224.998 1.99902s-145.334 -0.666992 -224.001 -2c2 15.333 4.33301 46.333 7 93l2 69c32 -1.33301 66.333 -2 103 -2c34.667 0 69 0.666992 103 2c30 502 51.333 1002.33 64 1501c-34.667 1.33301 -68.667 2 -102 2
c-34.667 0 -69 -0.666992 -103 -2c4 36.667 7 90.334 9 161.001c60.667 -1.33301 134.667 -2 222 -2s161.666 0.666992 222.999 2l-34 -578l-29 -675z" />
    <glyph glyph-name="asciicircum" unicode="^" horiz-adv-x="1024" 
d="M273 731h-233l326 641h291l327 -641h-234l-239 465z" />
    <glyph glyph-name="underscore" unicode="_" horiz-adv-x="1024" 
d="M0 -125h1024v-160h-1024v160z" />
    <glyph glyph-name="grave" unicode="`" horiz-adv-x="1024" 
d="M666 1154c-38.667 1.33301 -73.002 2 -103.002 2c-39.333 0 -75.666 -0.666992 -108.999 -2l-75 109c-23.333 34 -55.666 78.667 -96.999 134c64 -1.33301 114.333 -2 151 -2c46 0 95.333 0.666992 148 2l26 -75l28 -80z" />
    <glyph glyph-name="a" unicode="a" horiz-adv-x="1161" 
d="M177 794c9.33301 48 15.1699 81.6719 17.5029 101.005s6.5 48.666 12.5 87.999c90.667 21.333 170.667 36.333 240 45s136.333 13 201 13c73.333 0 140.666 -8.5 201.999 -25.5s109.333 -44.167 144 -81.5s52 -91 52 -161c0 -38 -5.33301 -134.833 -16 -290.5
s-17 -316.5 -19 -482.5c-50.667 1.33301 -97.334 2 -140.001 2c-40.667 0 -88.334 -0.666992 -143.001 -2c8.66699 80.667 15.667 174 21 280l13 249c-25.333 -16.667 -44.666 -28.334 -57.999 -35.001s-28.333 -12.834 -45 -18.501s-46 -14.334 -88 -26.001
s-75.667 -21.834 -101 -30.501s-48.166 -18.5 -68.499 -29.5s-37.5 -23.333 -51.5 -37s-24.167 -28 -30.5 -43s-9.5 -31.167 -9.5 -48.5c0 -28 8.16699 -52.167 24.5 -72.5s36.833 -34.5 61.5 -42.5s53.667 -12 87 -12c21.333 0 43.833 1.66699 67.5 5
s55.5 11.666 95.5 24.999c-14 -38 -30.333 -94.667 -49 -170c-47.333 -8 -85 -13 -113 -15s-54 -3 -78 -3c-84 0 -153 11.333 -207 34s-93.833 58.667 -119.5 108s-38.5 99 -38.5 149c0 28.667 5 57 15 85s24.667 53.667 44 77s44.333 45.833 75 67.5s75 42.667 133 63
s134.667 40.833 230 61.5c25.333 5.33301 51.666 11.833 78.999 19.5s49.166 15.167 65.499 22.5s30.5 16.833 42.5 28.5s20.833 23.834 26.5 36.501s8.5 25.667 8.5 39c0 26 -8.5 48 -25.5 66s-39 30.5 -66 37.5s-56.833 10.5 -89.5 10.5c-121.333 0 -255.333 -29 -402 -87
z" />
    <glyph glyph-name="b" unicode="b" horiz-adv-x="1274" 
d="M101 0c12 126.667 25.1689 346.834 39.502 660.501s21.833 548.5 22.5 704.5c59.333 -1.33301 110.666 -2 153.999 -2s89.666 0.666992 138.999 2c-11.333 -94 -20.333 -212.667 -27 -356c65.333 12.667 117.333 21.167 156 25.5s77 6.5 115 6.5
c104.667 0 192.834 -16.5 264.501 -49.5s129.167 -87.667 172.5 -164s65 -168.833 65 -277.5c0 -76 -10.833 -149.833 -32.5 -221.5s-54 -135.334 -97 -191.001s-95.167 -96.5 -156.5 -122.5s-128 -39 -200 -39c-34.667 0 -66.834 3.16699 -96.501 9.5s-57 15.5 -82 27.5
s-47.333 26 -67 42s-36 32 -49 48s-28.167 38.333 -45.5 67l-4 -170c-54.667 1.33301 -97.667 2 -129 2c-24 0 -71.333 -0.666992 -142 -2zM410.002 805l-8.00195 -170.996c-2 -36.667 -3 -72.334 -3 -107.001c0 -82.667 8.5 -147.834 25.5 -195.501
s45.833 -84.5 86.5 -110.5s86.334 -39 137.001 -39c55.333 0 103.333 14.833 144 44.5s71.834 73.167 93.501 130.5s32.5 117.666 32.5 180.999c0 91.333 -24.333 164.666 -73 219.999s-120.334 83 -215.001 83c-30.667 0 -62.667 -2.5 -96 -7.5
s-74.666 -14.5 -123.999 -28.5z" />
    <glyph glyph-name="c" unicode="c" horiz-adv-x="1001" 
d="M897 231c-3.33301 -27.333 -8.33398 -58.3359 -15.001 -93.0029s-13.667 -77.667 -21 -129c-95.333 -22 -189.333 -33 -282 -33c-54 0 -106 5 -156 15s-96.5 27.833 -139.5 53.5s-80.833 59.5 -113.5 101.5s-57.167 92.833 -73.5 152.5s-24.5 121.167 -24.5 184.5
c0 84 13.5 164.667 40.5 242s66.5 140.5 118.5 189.5s109.833 82.333 173.5 100s134.5 26.5 212.5 26.5c43.333 0 88 -2.5 134 -7.5s100.333 -15.167 163 -30.5l15 -219c-99.333 34 -186 51 -260 51c-45.333 0 -88.166 -7.66699 -128.499 -23s-75 -39.5 -104 -72.5
s-49.667 -71.167 -62 -114.5s-18.5 -87.666 -18.5 -132.999c0 -63.333 9.83301 -118.166 29.5 -164.499s53.5 -82.166 101.5 -107.499s102.667 -38 164 -38c30 0 66.5 3.83301 109.5 11.5s88.5 20.167 136.5 37.5z" />
    <glyph glyph-name="d" unicode="d" horiz-adv-x="1281" 
d="M1134 0c-55.333 1.33301 -98.334 2.00586 -129.001 2.00586c-33.333 0 -79.333 -0.666992 -138 -2l9 174c-29.333 -38 -54.5 -67.333 -75.5 -88s-47 -39.834 -78 -57.501s-64.5 -30.834 -100.5 -39.501s-73.333 -13 -112 -13c-64 0 -124 11.667 -180 35
s-103.667 56.166 -143 98.499s-68.333 92.666 -87 150.999s-28 119.166 -28 182.499c0 87.333 16.667 172.5 50 255.5s79 150.167 137 201.5s123.667 87.666 197 108.999s152 32 236 32c60.667 0 129.334 -5.66699 206.001 -17c4.66699 86.667 7 177.667 7 273v68
c62.667 -1.33301 110.667 -2 144 -2c43.333 0 92 0.666992 146 2c-14.667 -169.333 -28.5 -399.833 -41.5 -691.5s-19.5 -516.167 -19.5 -673.5zM886.999 834.006c-50 13.333 -98.001 19.998 -144.001 19.998c-52.667 0 -103 -7.33301 -151 -22s-90.5 -39.667 -127.5 -75
s-65.5 -80.666 -85.5 -135.999s-30 -108.666 -30 -159.999s9.16699 -98.333 27.5 -141s46.833 -76.334 85.5 -101.001s82.334 -37 131.001 -37c36.667 0 70 6.5 100 19.5s57.333 33 82 60s45.5 61.833 62.5 104.5s29.167 99.334 36.5 170.001c4.66699 52 9 151.333 13 298z
" />
    <glyph glyph-name="e" unicode="e" horiz-adv-x="1148" 
d="M1008 227c-8.66699 -39.333 -21 -109.999 -37 -211.999c-72 -15.333 -132.667 -25.666 -182 -30.999s-99 -8 -149 -8c-87.333 0 -165.5 8.66699 -234.5 26s-129.5 49.166 -181.5 95.499s-90.333 103.166 -115 170.499s-37 138 -37 212c0 82 14.333 161.5 43 238.5
s68.834 140 120.501 189s110.5 83.667 176.5 104s135 30.5 207 30.5c68 0 132.667 -8.5 194 -25.5s112.833 -44.833 154.5 -83.5s73.667 -85.167 96 -139.5s33.5 -114.833 33.5 -181.5c0 -31.333 -3.33301 -63.666 -10 -96.999l-733 -1
c-1.33301 -24.667 -2 -44.334 -2 -59.001c0 -44.667 7.66699 -85.667 23 -123s37.666 -69 66.999 -95s64.333 -45.167 105 -57.5s80.667 -18.5 120 -18.5c46 0 95.833 5 149.5 15s117.5 27 191.5 51zM362 631.001l468.002 -0.998047c0 32 -1 55.667 -3 71
s-6.5 32.833 -13.5 52.5s-16.5 37 -28.5 52s-26 27.5 -42 37.5s-34.5 17.667 -55.5 23s-43.5 8 -67.5 8c-28 0 -55.167 -4.33301 -81.5 -13s-50.5 -21.334 -72.5 -38.001s-39.833 -35.334 -53.5 -56.001s-23.834 -40.5 -30.501 -59.5s-13.334 -44.5 -20.001 -76.5z" />
    <glyph glyph-name="f" unicode="f" horiz-adv-x="704" 
d="M137 0l12.0029 165l30 650h-124c2 20 4.16699 52.5 6.5 97.5s3.83301 77.833 4.5 98.5h136v40c0 71.333 3 125.833 9 163.5s17.167 68.5 33.5 92.5s39.333 44.833 69 62.5s62.167 29.667 97.5 36s71.666 9.5 108.999 9.5c76 0 156.333 -10.667 241 -32
c2 -74.667 5.66699 -138.667 11 -192c-64 22.667 -122.333 34 -175 34c-20.667 0 -39.667 -2.5 -57 -7.5s-31.5 -11.833 -42.5 -20.5s-20.167 -20 -27.5 -34s-12.333 -30.5 -15 -49.5s-4 -40.833 -4 -65.5v-37h255c-4 -46 -8 -111.333 -12 -196h-240
c-12.667 -265.333 -22.334 -537 -29.001 -815c-60.667 1.33301 -109 2 -145 2c-36.667 0 -84.334 -0.666992 -143.001 -2z" />
    <glyph glyph-name="g" unicode="g" horiz-adv-x="1291" 
d="M172 -212c150 -49.333 280.004 -74.0029 390.004 -74.0029c42 0 81.667 5.16699 119 15.5s68.666 25.333 93.999 45s45 46.334 59 80.001s23.333 72.667 28 117s8.33398 111.5 11.001 201.5c-26 -35.333 -49.333 -62.833 -70 -82.5s-45.5 -37.334 -74.5 -53.001
s-62.833 -28.334 -101.5 -38.001s-79.334 -14.5 -122.001 -14.5c-58.667 0 -114.334 9.16699 -167.001 27.5s-99.5 47.166 -140.5 86.499s-72.167 88.833 -93.5 148.5s-32 121.834 -32 186.501c0 92.667 17.5 180.334 52.5 263.001s86.333 150.667 154 204s140 90 217 110
s162.5 30 256.5 30c52 0 111 -3.16699 177 -9.5s153.333 -19.166 262 -38.499l-23 -317l-21 -397l-8 -359c-2 -40.667 -7 -79.834 -15 -117.501s-20.667 -71.667 -38 -102s-39.333 -57.166 -66 -80.499s-56.834 -42.166 -90.501 -56.499s-75.334 -26.166 -125.001 -35.499
s-102.834 -14 -159.501 -14c-60.667 0 -129.667 4 -207 12s-161.666 23 -252.999 45zM902.004 816.997c-58 12 -111.666 18 -160.999 18c-86.667 0 -158.334 -15.833 -215.001 -47.5s-100.334 -77.834 -131.001 -138.501s-46 -125 -46 -193c0 -50 9.33301 -96.5 28 -139.5
s47.834 -75.5 87.501 -97.5s83.5 -33 131.5 -33c34 0 65.833 5.33301 95.5 16s56.5 27 80.5 49s45.167 49.333 63.5 82s31.333 69.5 39 110.5s13.5 92.333 17.5 154s7.33301 134.834 10 219.501z" />
    <glyph glyph-name="h" unicode="h" horiz-adv-x="1317" 
d="M100 0l24 325.001l24 465l14 575c58.667 -1.33301 107.334 -2 146.001 -2c50.667 0 99 0.666992 145 2l-18 -238c-4 -58.667 -9.33301 -153 -16 -283c21.333 32 39.166 56 53.499 72s30.333 30.833 48 44.5s35.834 25.167 54.501 34.5s40.5 17.666 65.5 24.999
s52.833 13 83.5 17s62 6 94 6c55.333 0 108.5 -6.33301 159.5 -19s95 -34 132 -64s62.333 -65.167 76 -105.5s20.5 -82.5 20.5 -126.5c0 -28.667 -1.66699 -73.334 -5 -134.001l-24 -437c-2 -45.333 -3 -97.666 -3 -156.999c-54 1.33301 -101.667 2 -143 2
c-44.667 0 -95.667 -0.666992 -153 -2c9.33301 78.667 18.5 186 27.5 322s13.5 232.667 13.5 290c0 52.667 -8.5 93.834 -25.5 123.501s-42 51.667 -75 66s-69.167 21.5 -108.5 21.5c-50.667 0 -95.334 -9 -134.001 -27c-37.333 -17.333 -68.666 -43.333 -93.999 -78
c-20.667 -28.667 -38 -69.667 -52 -123c-14.667 -56 -25.334 -142.667 -32.001 -260c-3.33301 -56.667 -7 -168.334 -11 -335.001c-52.667 1.33301 -98 2 -136 2c-36 0 -86.333 -0.666992 -151 -2z" />
    <glyph glyph-name="i" unicode="i" horiz-adv-x="546" 
d="M154 1191c2.66699 68.667 4.00098 121.333 4.00098 158v32c60.667 -1.33301 110 -2 148 -2c52 0 100.333 0.666992 145 2c-2 -16.667 -3.33301 -35.667 -4 -57l-5 -133c-50.667 1.33301 -97.334 2 -140.001 2s-92 -0.666992 -148 -2zM100.001 -0.000976562
c10 100 17.002 183.668 21.002 251.001c6.66699 106.667 12.5 229.667 17.5 369s8.5 271.666 10.5 396.999c65.333 -1.33301 114.333 -2 147 -2c30 0 78.667 0.666992 146 2c-9.33301 -116 -16.833 -226.667 -22.5 -332s-9.83398 -226 -12.501 -362s-4 -243.667 -4 -323
c-60.667 1.33301 -109.334 2 -146.001 2c-34.667 0 -87 -0.666992 -157 -2z" />
    <glyph glyph-name="j" unicode="j" horiz-adv-x="549" 
d="M153 1194c4 69.333 6.66797 131.667 8.00098 187c43.333 -1.33301 91.666 -2 144.999 -2c48 0 96 0.666992 144 2l-6 -95c0 -3.33301 -1.33301 -34 -4 -92c-50 1.33301 -97.667 2 -143 2c-46.667 0 -94.667 -0.666992 -144 -2zM435.001 1017l-19.999 -446.001l-14 -447
c-4.66699 -186 -9.33398 -297.667 -14.001 -335c-6 -48 -15 -85.333 -27 -112c-10 -23.333 -22.667 -44 -38 -62c-16 -18 -36 -34.333 -60 -49c-26 -16 -54.333 -28 -85 -36c-43.333 -10.667 -94 -16 -152 -16c-36 0 -79 2.16699 -129 6.5s-106.333 12.833 -169 25.5
l-10 129l-10 86c68.667 -23.333 131.667 -35 189 -35c30 0 57.5 4.16699 82.5 12.5s46.167 19.5 63.5 33.5c12 10.667 22.333 23.334 31 38.001c14 24.667 24.5 55 31.5 91s14.167 125 21.5 267c5.33301 108 9.66602 234.333 12.999 379c5.33301 188.667 8 315 8 379v91
c60.667 -1.33301 109.334 -2 146.001 -2c38.667 0 86 0.666992 142 2z" />
    <glyph glyph-name="k" unicode="k" horiz-adv-x="1124" 
d="M100 0l20 260l23 499l11 427c1.33301 77.333 2 137 2 179c70 -1.33301 119.667 -2 149 -2c34.667 0 80.334 0.666992 137.001 2l-21 -325l-24 -518l-10 -387l-1 -135c-59.333 1.33301 -106 2 -140 2c-38.667 0 -87.334 -0.666992 -146.001 -2zM419 569l203.001 248l62 79
l91 121c69.333 -1.33301 120 -2 152 -2c44 0 99.667 0.666992 167 2l-329 -378l-59 -72c48.667 -77.333 183.667 -266.333 405 -567c-60 1.33301 -111.333 2 -154 2s-95.667 -0.666992 -159 -2l-94.5 152.5c-24.333 38.333 -46.833 71.833 -67.5 100.5l-170 243
c-4.66699 6.66699 -20.334 31 -47.001 73z" />
    <glyph glyph-name="l" unicode="l" horiz-adv-x="543" 
d="M101 0c10 112.667 22.1689 315.167 36.502 607.5s23.166 544.833 26.499 757.5c69.333 -1.33301 118.666 -2 147.999 -2c39.333 0 87.333 0.666992 144 2l-24 -365l-35 -814l-4 -186c-54.667 1.33301 -101 2 -139 2c-12.667 0 -63.667 -0.666992 -153 -2z" />
    <glyph glyph-name="m" unicode="m" horiz-adv-x="1830" 
d="M102 0c9.33301 113.333 19.165 282.664 29.498 507.997s15.5 395 15.5 509c56.667 -1.33301 102.667 -2 138 -2c40.667 0 84.667 0.666992 132 2l-8 -161c21.333 31.333 40.833 56.833 58.5 76.5s40.5 37.834 68.5 54.501s60.833 29.834 98.5 39.501
s76.5 14.5 116.5 14.5c30 0 59 -2.83301 87 -8.5s53.5 -13.667 76.5 -24s42.667 -22.166 59 -35.499s30.166 -28.166 41.499 -44.499s23.666 -40.5 36.999 -72.5c14.667 23.333 28.167 42.833 40.5 58.5s28.833 31.834 49.5 48.501s43.667 30.667 69 42
s53.833 20.166 85.5 26.499s64.5 9.5 98.5 9.5c58 0 112.667 -9.5 164 -28.5s91.666 -49 120.999 -90s44 -91.833 44 -152.5c0 -32 -2.33301 -79 -7 -141s-10.334 -163.167 -17.001 -303.5s-10.334 -248.833 -11.001 -325.5c-48.667 1.33301 -91.667 2 -129 2
c-44 0 -95.667 -0.666992 -155 -2c6 86 11.667 176 17 270l12 229c3.33301 58 5 107 5 147c0 47.333 -7.5 83.166 -22.5 107.499s-34 41.666 -57 51.999s-48.833 15.5 -77.5 15.5c-30 0 -57.167 -5.66699 -81.5 -17s-47 -29.666 -68 -54.999s-37.167 -54.833 -48.5 -88.5
s-19.666 -81 -24.999 -142s-9.66602 -141.167 -12.999 -240.5l-7 -278c-55.333 1.33301 -101.333 2 -138 2s-85.667 -0.666992 -147 -2c4.66699 51.333 11.334 156.333 20.001 315s13 265.667 13 321c0 29.333 -2.33301 54.166 -7 74.499s-14.167 39.666 -28.5 57.999
s-31.166 31.833 -50.499 40.5s-41.666 13 -66.999 13c-46.667 0 -87.667 -15.333 -123 -46s-61.166 -71.667 -77.499 -123s-28 -151.166 -35 -299.499s-10.5 -266.166 -10.5 -353.499c-61.333 1.33301 -107.666 2 -138.999 2c-35.333 0 -84.333 -0.666992 -147 -2z" />
    <glyph glyph-name="n" unicode="n" horiz-adv-x="1311" 
d="M93 0c15.333 151.333 28.1699 321.335 38.5029 510.002s16.166 357.667 17.499 507c61.333 -1.33301 110.333 -2 147 -2c43.333 0 89.333 0.666992 138 2l-11 -170c20.667 29.333 38.834 52.666 54.501 69.999s35.667 34.333 60 51s50.333 30 78 40s58.667 18 93 24
s70.166 9 107.499 9c59.333 0 116.166 -7.5 170.499 -22.5s98.166 -38.833 131.499 -71.5s55.333 -68.334 66 -107.001s16 -79.667 16 -123c0 -18 -1 -46.667 -3 -86l-21 -437c-2.66699 -60.667 -4.33398 -125.334 -5.00098 -194.001c-52.667 1.33301 -97.667 2 -135 2
c-50.667 0 -101.667 -0.666992 -153 -2c5.33301 58 12 159.167 20 303.5s12 239.833 12 286.5c0 52.667 -8.33301 95 -25 127s-42.5 56.333 -77.5 73s-72.833 25 -113.5 25c-40 0 -77.333 -7.66699 -112 -23s-64.667 -37.666 -90 -66.999
c-26.667 -30 -47.334 -67 -62.001 -111c-15.333 -46.667 -26.666 -123.667 -33.999 -231c-6.66699 -95.333 -12 -223 -16 -383c-51.333 1.33301 -97.666 2 -138.999 2c-42 0 -93 -0.666992 -153 -2z" />
    <glyph glyph-name="o" unicode="o" horiz-adv-x="1265" 
d="M647 1041c76.667 0 150.167 -11.498 220.5 -34.498s130 -57 179 -102s85.833 -100 110.5 -165s37 -133.5 37 -205.5c0 -76 -13 -149.333 -39 -220s-63.667 -131.834 -113 -183.501s-110.833 -90.334 -184.5 -116.001s-152.167 -38.5 -235.5 -38.5
c-77.333 0 -150.833 11.5 -220.5 34.5s-129.167 57.5 -178.5 103.5s-86.833 102 -112.5 168s-38.5 135 -38.5 207c0 73.333 11.667 143.333 35 210s59.833 126 109.5 178s113.167 92.333 190.5 121s157.333 43 240 43zM647 835.002c-58 0 -109.832 -14.165 -155.499 -42.498
s-79.667 -70.5 -102 -126.5s-33.5 -117 -33.5 -183c0 -58 9.16699 -109.667 27.5 -155s48.333 -82 90 -110s91.167 -42 148.5 -42c58.667 0 110.167 14.5 154.5 43.5s77.666 71.667 99.999 128s33.5 118.5 33.5 186.5c0 55.333 -8.66699 105.666 -26 150.999
s-46.5 81.666 -87.5 108.999s-90.833 41 -149.5 41z" />
    <glyph glyph-name="p" unicode="p" horiz-adv-x="1273" 
d="M75 -459c16.667 186 31.667 427.001 45 723.001s20 536.333 20 721c126.667 22.667 224.667 37.667 294 45s138.333 11 207 11c90 0 172.5 -10.667 247.5 -32s135 -57 180 -107s78.333 -108 100 -174s32.5 -135 32.5 -207c0 -72.667 -10.333 -142.667 -31 -210
s-52.334 -127.833 -95.001 -181.5s-92.167 -92.667 -148.5 -117s-117.833 -36.5 -184.5 -36.5c-39.333 0 -78.166 4.66699 -116.499 14s-72 21.666 -101 36.999s-52.833 30.833 -71.5 46.5s-42.334 39.167 -71.001 70.5l-15 -435l-1 -68c-0.666992 -8.66699 -1 -42 -1 -100
c-61.333 0.666992 -108.666 1 -141.999 1zM416 801.001c-4.66699 -36 -8.00293 -67.002 -10.0029 -93.002l-6 -111c-2.66699 -48 -4 -83.333 -4 -106c0 -40.667 4.16699 -79.667 12.5 -117s25 -71.666 50 -102.999s54.667 -55.166 89 -71.499s69.833 -24.5 106.5 -24.5
c50.667 0 96.834 14.5 138.501 43.5s73.834 71.5 96.501 127.5s34 115.667 34 179c0 70 -12.5 129.167 -37.5 177.5s-58.5 83.5 -100.5 105.5s-89.667 33 -143 33c-69.333 0 -144.666 -13.333 -225.999 -40z" />
    <glyph glyph-name="q" unicode="q" horiz-adv-x="1270" 
d="M821 -459l16.998 274c3.33301 41.333 6.33301 95.333 9 162l10 189c-30 -37.333 -55.333 -65.833 -76 -85.5s-45.667 -37.334 -75 -53.001s-61.666 -28.167 -96.999 -37.5s-72.333 -14 -111 -14c-60.667 0 -117.667 11.333 -171 34s-99.5 55.5 -138.5 98.5
s-68.167 94 -87.5 153s-29 120.167 -29 183.5c0 90.667 17.833 177.834 53.5 261.501s84.5 150.334 146.5 200.001s135 84.5 219 104.5s175 30 273 30c50 0 105.833 -2.5 167.5 -7.5s142.834 -15.833 243.501 -32.5c-32 -344.667 -53 -831.334 -63 -1460
c-50 1.33301 -97.667 2 -143 2c-36.667 0 -86 -0.666992 -148 -2zM873.998 816c-51.333 12.667 -99.333 19 -144 19c-78.667 0 -147 -15.833 -205 -47.5s-101.833 -78.667 -131.5 -141s-44.5 -130.833 -44.5 -205.5c0 -48.667 8.5 -93 25.5 -133s43.833 -72 80.5 -96
s78 -36 124 -36c38.667 0 75.5 8.83301 110.5 26.5s65.5 43.5 91.5 77.5s45.333 73 58 117c8.66699 28 15.667 69.833 21 125.5s10 153.5 14 293.5z" />
    <glyph glyph-name="r" unicode="r" horiz-adv-x="795" 
d="M99 0l29.002 474.999l8 276c1.33301 56.667 2 113.667 2 171c0 10 -0.666992 41.667 -2 95c62 -1.33301 107.667 -2 137 -2c34 0 79 0.666992 135 2l-5 -141c25.333 36 47 62.833 65 80.5s38.167 32.834 60.5 45.501s47.166 22.334 74.499 29.001s55.333 10 84 10
c26.667 0 54 -3.33301 82 -10c0 -62 3 -140.667 9 -236c-39.333 10.667 -75 16 -107 16c-38.667 0 -72.834 -5.83301 -102.501 -17.5s-56.334 -29.334 -80.001 -53.001s-43.167 -52.834 -58.5 -87.501c-12.667 -28 -22 -64.333 -28 -109
c-5.33301 -34.667 -9.83301 -94 -13.5 -178s-5.5 -166.667 -5.5 -248c0 -31.333 1 -70.666 3 -117.999c-50.667 1.33301 -97 2 -139 2c-41.333 0 -90.666 -0.666992 -147.999 -2z" />
    <glyph glyph-name="s" unicode="s" horiz-adv-x="898" 
d="M73 19l-22.002 220.002c65.333 -26.667 120.666 -45.167 165.999 -55.5s87 -15.5 125 -15.5s70 4.5 96 13.5s45.333 22.333 58 40s19 36.167 19 55.5c0 8.66699 -0.833008 16.667 -2.5 24s-4.66699 15 -9 23s-9.33301 15.5 -15 22.5s-13.5 15 -23.5 24
s-24.333 20.5 -43 34.5l-54 43c-52 40.667 -91.667 72.667 -119 96s-50.333 47.166 -69 71.499s-32.834 50 -42.501 77s-14.5 54.5 -14.5 82.5c0 48.667 14.833 95 44.5 139s72.834 76.167 129.501 96.5s123.334 30.5 200.001 30.5c87.333 0 188 -10.333 302 -31l13 -209
c-77.333 31.333 -151.666 47 -222.999 47c-38.667 0 -72.5 -3.83301 -101.5 -11.5s-49.833 -19.334 -62.5 -35.001s-19 -33.167 -19 -52.5c0 -11.333 2 -22.5 6 -33.5s11 -22.5 21 -34.5s21.5 -23.333 34.5 -34s40.167 -31.667 81.5 -63l108.5 -85
c31 -25.333 56.5 -50.833 76.5 -76.5s35.333 -53.167 46 -82.5s16 -59 16 -89c0 -50 -15.333 -96.333 -46 -139s-77 -76 -139 -100s-131.333 -36 -208 -36c-40 0 -88.667 3.16699 -146 9.5s-118.666 17.5 -183.999 33.5z" />
    <glyph glyph-name="t" unicode="t" horiz-adv-x="761" 
d="M724 209c-8 -36.667 -20.668 -104.67 -38.001 -204.003c-56 -12.667 -100 -20.667 -132 -24s-62 -5 -90 -5c-49.333 0 -93.5 4.66699 -132.5 14s-71.167 25.833 -96.5 49.5s-42.5 51.334 -51.5 83.001s-13.5 64.5 -13.5 98.5c0 8.66699 0.333008 20.334 1 35.001
s3.33398 62 8.00098 142l23 416h-144c3.33301 40 6.33301 104.333 9 193h151c4 38.667 8 104.334 12 197.001l118 23c24.667 4.66699 72.334 15.667 143.001 33c-4.66699 -90 -7.33398 -174.333 -8.00098 -253h254c-4.66699 -90 -7 -154.333 -7 -193h-255
c-14 -271.333 -21 -428.333 -21 -471c0 -41.333 4.5 -73.333 13.5 -96s23.5 -39 43.5 -49s41.333 -15 64 -15c16.667 0 34.167 1.33301 52.5 4s50.5 10 96.5 22z" />
    <glyph glyph-name="u" unicode="u" horiz-adv-x="1280" 
d="M1132 0c-58.667 1.33301 -103.666 2 -134.999 2c-39.333 0 -84 -0.666992 -134 -2l2 166c-18.667 -28 -35 -50.5 -49 -67.5s-32.333 -33.667 -55 -50s-47.334 -29.333 -74.001 -39s-57.167 -17.667 -91.5 -24s-70.833 -9.5 -109.5 -9.5
c-74.667 0 -139.667 10.833 -195 32.5s-99.166 54.5 -131.499 98.5s-48.5 107 -48.5 189v21l16 258l15 340c0.666992 27.333 1 61.333 1 102c63.333 -1.33301 113 -2 149 -2c38 0 84 0.666992 138 2l-33 -456c-2 -35.333 -3.5 -65.166 -4.5 -89.499s-1.5 -41.833 -1.5 -52.5
c0 -48 7.16699 -87.833 21.5 -119.5s39.333 -55.834 75 -72.501s73.834 -25 114.501 -25c38.667 0 75.334 7.33301 110.001 22c31.333 13.333 58.166 32 80.499 56s41.166 56.333 56.499 97c11.333 29.333 20 70 26 122c4.66699 36.667 9 99.667 13 189
c5.33301 108 9 217.667 11 329c66 -1.33301 116.333 -2 151 -2c39.333 0 83.666 0.666992 132.999 2c-8 -95.333 -16.333 -214.5 -25 -357.5s-14.667 -261 -18 -354s-6 -194.833 -8 -305.5z" />
    <glyph glyph-name="v" unicode="v" horiz-adv-x="1104" 
d="M373 0c-44 140.667 -162.332 479.667 -354.999 1017c58.667 -1.33301 109.334 -2 152.001 -2c45.333 0 91.666 0.666992 138.999 2l234 -763l32 87l225 571l40 105c54.667 -1.33301 103.334 -2 146.001 -2c43.333 0 92.666 0.666992 147.999 2l-163 -353l-236 -535
l-53 -129c-60 1.33301 -110.333 2 -151 2c-42.667 0 -95.334 -0.666992 -158.001 -2z" />
    <glyph glyph-name="w" unicode="w" horiz-adv-x="1781" 
d="M366 0l-117.002 355l-168 488l-63 174c51.333 -1.33301 98.333 -2 141 -2c40.667 0 83.334 0.666992 128.001 2l231 -749l265 749c50 -1.33301 97.667 -2 143 -2c48 0 93.667 0.666992 137 2l172 -661c2 -10 9 -39.333 21 -88l23 66c0.666992 1.33301 7 17 19 47l155 393
l92 243c50.667 -1.33301 94.334 -2 131.001 -2c30 0 75.333 0.666992 136 2l-275 -628l-165 -389c-56 1.33301 -100 2 -132 2c-33.333 0 -84 -0.666992 -152 -2l-183 728c-10 -26 -30 -81.333 -60 -166l-203 -562c-56.667 1.33301 -99.667 2 -129 2
c-32.667 0 -81.667 -0.666992 -147 -2z" />
    <glyph glyph-name="x" unicode="x" horiz-adv-x="1139" 
d="M-23 0l399.999 541l-84 135l-109 169l-113 172c73.333 -1.33301 132 -2 176 -2c58 0 109.667 0.666992 155 2l103 -195l73 -138l220 333c47.333 -1.33301 98 -2 152 -2c50.667 0 103 0.666992 157 2l-156 -205l-198 -268l146 -237l197 -307
c-57.333 1.33301 -110.333 2 -159 2c-58.667 0 -115.667 -0.666992 -171 -2c-40.667 82.667 -81.167 158.667 -121.5 228s-70.166 123.333 -89.499 162c-27.333 -43.333 -63.833 -98.333 -109.5 -165l-147.5 -225c-56 1.33301 -106.667 2 -152 2
c-50.667 0 -107 -0.666992 -169 -2z" />
    <glyph glyph-name="y" unicode="y" horiz-adv-x="1104" 
d="M-25 -460c-12 100 -21.668 172 -29.001 216c64 -30 124.333 -45 181 -45c17.333 0 35 2.16699 53 6.5s34.667 10.5 50 18.5c10 5.33301 20.167 13 30.5 23s24.5 28.333 42.5 55s33.667 53 47 79c10.667 22 21.667 49.667 33 83l-208 609l-152 432
c70 -1.33301 120.333 -2 151 -2c35.333 0 81.666 0.666992 138.999 2c14 -55.333 27 -103.333 39 -144l95 -314c29.333 -96.667 50.333 -169.334 63 -218.001c8 -32 17.333 -74.333 28 -127c20 60.667 37.333 110 52 148l109 278l97 239c17.333 42.667 35 88.667 53 138
c60 -1.33301 105.667 -2 137 -2c28.667 0 76.667 0.666992 144 2l-385 -863l-167 -381c-23.333 -49.333 -45.666 -87.666 -66.999 -114.999c-17.333 -23.333 -36.333 -43.333 -57 -60c-20 -16 -41.333 -29.333 -64 -40c-28.667 -13.333 -59.667 -24 -93 -32
c-38 -8 -76.333 -12 -115 -12c-22 0 -52.667 2 -92 6s-77.666 10.667 -114.999 20z" />
    <glyph glyph-name="z" unicode="z" horiz-adv-x="988" 
d="M48 0c2.66699 65.333 4.66797 139 6.00098 221c26 26 43 44 51 54l489 552h-52c-88.667 0 -166.5 -1 -233.5 -3s-132.5 -5 -196.5 -9c4.66699 64 7 131.333 7 202c116 -1.33301 224.667 -2 326 -2c183.333 0 339 0.666992 467 2
c-2.66699 -28 -6.33398 -105.667 -11.001 -233l-499 -555l-34 -35c66.667 -2.66699 122.667 -4 168 -4c98 0 165.5 0.5 202.5 1.5s82.5 2.83301 136.5 5.5c-5.33301 -50 -10 -115.667 -14 -197c-117.333 1.33301 -250 2 -398 2c-158 0 -296.333 -0.666992 -415 -2z" />
    <glyph glyph-name="braceleft" unicode="{" horiz-adv-x="849" 
d="M386 451c16 -8 28.501 -15.333 37.501 -22s17.833 -15.834 26.5 -27.501s16 -24.667 22 -39s10.333 -31.666 13 -51.999s4 -44.166 4 -71.499c0 -30 -1.66699 -72.333 -5 -127l-10 -136c-2.66699 -36.667 -4 -69.667 -4 -99c0 -33.333 2.16699 -59 6.5 -77
s11 -32.833 20 -44.5s21 -21.667 36 -30s33 -14.333 54 -18s44.833 -5.83398 71.5 -6.50098c-2 -15.333 -4.16699 -39.5 -6.5 -72.5s-3.83301 -62.167 -4.5 -87.5c-66 0 -120.333 3.33301 -163 10c-65.333 10 -115.333 25.667 -150 47
c-28.667 18.667 -51.334 45.334 -68.001 80.001c-18.667 40.667 -28 88.334 -28 143.001c0 32 3.83301 102.833 11.5 212.5s11.5 180.167 11.5 211.5c0 23.333 -2.16699 43.833 -6.5 61.5s-9.83301 31.834 -16.5 42.501s-15.834 20.5 -27.501 29.5
s-22.334 15.833 -32.001 20.5s-21.167 8.33398 -34.5 11.001c4 24.667 6.33301 52.667 7 84c18 5.33301 34.333 12.666 49 21.999c20 12.667 35 25.5 45 38.5s17.833 29.833 23.5 50.5s9.83398 52.667 12.501 96c0.666992 19.333 2.33398 88.833 5.00098 208.5
s7 196.167 13 229.5c6.66699 39.333 20.167 74.166 40.5 104.499s46.5 54.166 78.5 71.499c34.667 19.333 79.667 33 135 41c44 6 103 9 177 9c-2 -14.667 -4.16699 -39.667 -6.5 -75s-3.83301 -63.666 -4.5 -84.999c-44 -2.66699 -78 -8 -102 -16
s-42.667 -18.833 -56 -32.5s-23.5 -31.334 -30.5 -53.001s-11.5 -57 -13.5 -106s-3 -94.833 -3 -137.5c0 -28.667 -0.5 -63 -1.5 -103s-3.16699 -76.5 -6.5 -109.5s-7.83301 -59.5 -13.5 -79.5s-13 -36.833 -22 -50.5s-19.333 -25.334 -31 -35.001
s-29.5 -20.167 -53.5 -31.5z" />
    <glyph glyph-name="bar" unicode="|" horiz-adv-x="1024" 
d="M383 1365h259v-1706h-259v1706z" />
    <glyph glyph-name="braceright" unicode="}" horiz-adv-x="849" 
d="M410 453c-24 11.333 -41.168 22.1729 -51.501 32.5059s-19.833 23.5 -28.5 39.5s-14.667 35.667 -18 59s-5 48.666 -5 75.999c0 46.667 3.16699 114.167 9.5 202.5s9.5 146.833 9.5 175.5c0 30 -2.83301 53.667 -8.5 71s-13.5 32.166 -23.5 44.499s-21.667 22 -35 29
s-30.166 12.167 -50.499 15.5s-42.833 5.66602 -67.5 6.99902l4 81c1.33301 26 2 45.667 2 59v20c67.333 0 121.666 -3 162.999 -9c65.333 -10 116.333 -26.333 153 -49c30 -18 53 -44.667 69 -80c18 -38.667 27 -80.334 27 -125.001c0 -26.667 -4 -99.334 -12 -218.001
s-12 -192.667 -12 -222c0 -57.333 11.833 -97.666 35.5 -120.999s50.834 -39 81.501 -47c-4 -24 -6.33301 -51.667 -7 -83c-18 -4.66699 -34 -11.334 -48 -20.001c-16.667 -10 -29.5 -20.167 -38.5 -30.5s-16.5 -22.166 -22.5 -35.499s-10.833 -31.5 -14.5 -54.5
s-6.16699 -61.167 -7.5 -114.5l-4 -171c-1.33301 -65.333 -3.33301 -115 -6 -149c-4 -45.333 -10.167 -81.333 -18.5 -108s-20.333 -51 -36 -73s-33.5 -39.833 -53.5 -53.5s-44.333 -24.834 -73 -33.501c-35.333 -11.333 -76.666 -19 -123.999 -23
c-26 -2 -70 -3.33301 -132 -4c3.33301 23.333 7 77 11 161c60 1.33301 104.5 11 133.5 29s47.667 43 56 75s13.166 109.333 14.499 232c0.666992 72 2.33398 130 5.00098 174c2.66699 48 7 83.833 13 107.5s13.667 43.667 23 60s20.666 30.166 33.999 41.499
c11.333 10 29 20.667 53 32z" />
    <glyph glyph-name="asciitilde" unicode="~" horiz-adv-x="1365" 
d="M320 451l-129.002 103.999c10.667 24.667 21.167 46.834 31.5 66.501s24.333 42.167 42 67.5s33.5 44.666 47.5 57.999s30.667 25.5 50 36.5s39.5 19.5 60.5 25.5s42.833 9 65.5 9c20 0 39.833 -2.33301 59.5 -7s45.667 -13.167 78 -25.5s68.833 -27.666 109.5 -45.999
s67.334 -30 80.001 -35s25.334 -8.83301 38.001 -11.5s24.334 -4 35.001 -4c32 0 60.833 11 86.5 33s50.5 55.667 74.5 101l129 -103c-17.333 -41.333 -32.333 -73 -45 -95s-28.834 -44.167 -48.501 -66.5s-40.667 -40.5 -63 -54.5s-47 -24.833 -74 -32.5
s-55.833 -11.5 -86.5 -11.5c-11.333 0 -22.5 1 -33.5 3s-25.5 5.66699 -43.5 11s-31 9.66602 -39 12.999s-30.667 13.333 -68 30l-41 19c-26.667 12 -50.5 22 -71.5 30s-38.5 13.333 -52.5 16s-26 4 -36 4c-27.333 0 -53.5 -10.167 -78.5 -30.5
s-50.833 -55.166 -77.5 -104.499z" />
    <glyph glyph-name="nbspace" unicode="&#xa0;" horiz-adv-x="512" 
 />
    <glyph glyph-name="exclamdown" unicode="&#xa1;" horiz-adv-x="621" 
d="M172 1017c75.333 -1.33301 128.001 -1.99902 158.001 -1.99902c20.667 0 70.667 0.666992 150 2c-2 -28.667 -6.66699 -115.334 -14 -260.001l-148 2c-28.667 0 -81.334 -0.666992 -158.001 -2c6 86 10 172.667 12 260zM182.001 618.001c54 -1.33301 101.333 -2 142 -2
c32 0 71 0.666992 117 2l-20 -831v-135c-68.667 1.33301 -117 2 -145 2c-38 0 -88.333 -0.666992 -151 -2l10 125z" />
    <glyph glyph-name="cent" unicode="&#xa2;" 
d="M1012 406c-17.333 -94.667 -29.6611 -168.668 -36.9941 -222.001c-52.667 -10.667 -89.334 -17.5 -110.001 -20.5s-49.667 -5.5 -87 -7.5c-2 -42 -3 -88.333 -3 -139v-52c-34 1.33301 -70.333 2 -109 2c-36.667 0 -74.667 -0.666992 -114 -2l5 81
c0 6 1.33301 45.333 4 118c-40.667 10 -73.334 19.833 -98.001 29.5s-50 23.334 -76 41.001s-51 41.167 -75 70.5s-44.333 62.333 -61 99s-29.5 77.667 -38.5 123s-13.5 91.666 -13.5 138.999c0 52 5.16699 102.167 15.5 150.5s24.666 92.833 42.999 133.5
s41.166 77.834 68.499 111.501s55.666 60.667 84.999 81s57.333 35.5 84 45.5s63.334 19.667 110.001 29c0.666992 35.333 1 86 1 152l-1 36c53.333 -1.33301 93.333 -2 120 -2c30 0 67 0.666992 111 2c-5.33301 -46.667 -9 -104 -11 -172c38.667 -3.33301 71 -7.5 97 -12.5
s57.667 -12.833 95 -23.5c2 -44 8 -120.333 18 -229c-84 37.333 -164.667 56 -242 56c-66.667 0 -123.334 -17 -170.001 -51s-80.167 -77 -100.5 -129s-30.5 -108.667 -30.5 -170c0 -98 25.667 -174.5 77 -229.5s119.666 -82.5 204.999 -82.5c68 0 147.333 14.667 238 44z
" />
    <glyph glyph-name="sterling" unicode="&#xa3;" 
d="M1202 252l-29.0059 -152.002l-15 -92c-38.667 -12.667 -71.334 -21.167 -98.001 -25.5s-54.667 -6.5 -84 -6.5c-24 0 -47 1.16699 -69 3.5s-46.833 6.5 -74.5 12.5s-53.167 12.167 -76.5 18.5s-57 16.333 -101 30s-75.667 23 -95 28s-39 8.66699 -59 11
s-39.667 3.5 -59 3.5c-28.667 0 -56.834 -2.5 -84.501 -7.5s-52.334 -11.667 -74.001 -20s-39.5 -16.666 -53.5 -24.999s-32 -20.833 -54 -37.5c4.66699 53.333 8.33398 128 11.001 224c26 13.333 46.5 25.5 61.5 36.5s29.333 24.5 43 40.5s25.834 35.333 36.501 58
s18.834 47.5 24.501 74.5s8.5 54.5 8.5 82.5c0 25.333 -2.66699 51.333 -8 78l-163 -5c-9.33301 -0.666992 -25.666 -1.33398 -48.999 -2.00098c6 32 12.333 67.667 19 107l16 96l76 -1h39l-46 121c-6.66699 16 -11.334 28.833 -14.001 38.5s-5 19.667 -7 30
s-3.5 20.5 -4.5 30.5s-1.5 20.333 -1.5 31c0 61.333 17.667 119 53 173s90 98 164 132s174.333 51 301 51c48 0 94.833 -2.16699 140.5 -6.5s103.834 -13.5 174.501 -27.5c1.33301 -48.667 7 -128.667 17 -240c-69.333 25.333 -126.666 42.333 -171.999 51
s-86.333 13 -123 13c-30.667 0 -60 -3.33301 -88 -10s-52.167 -15.667 -72.5 -27s-37.666 -25 -51.999 -41s-24.666 -32.167 -30.999 -48.5s-9.5 -34.833 -9.5 -55.5c0 -19.333 2.33301 -38.5 7 -57.5s14 -46.5 28 -82.5s22.333 -59.667 25 -71h44l385 5
c-5.33301 -22 -11.333 -53 -18 -93s-13.667 -78 -21 -114c-71.333 1.33301 -140 2 -206 2c-54 0 -104 -1 -150 -3c4 -33.333 6 -69 6 -107c0 -37.333 -6.33301 -72.166 -19 -104.499s-33.667 -69.833 -63 -112.5h53c6.66699 0 18.834 -0.666992 36.501 -2s37.5 -3 59.5 -5
s35 -3.66699 39 -5l101 -24c14 -3.33301 32.333 -6.66602 55 -9.99902s42.834 -5.83301 60.501 -7.5s33.167 -2.5 46.5 -2.5c74 0 145 16.333 213 49z" />
    <glyph glyph-name="currency" unicode="&#xa4;" 
d="M244 977l-127.001 129c46 40 90.667 82 134 126l132 -142c80.667 39.333 167.334 59 260.001 59c95.333 0 183.333 -21 264 -63l149 146c25.333 -30 65 -72.333 119 -127l-142 -133c23.333 -35.333 41.166 -76 53.499 -122s18.5 -92.333 18.5 -139
c0 -50.667 -7.16699 -100.667 -21.5 -150s-34.5 -93.666 -60.5 -132.999l126 -128c-33.333 -28 -78 -69.667 -134 -125l-120 129c-39.333 -22 -83 -38.833 -131 -50.5s-98 -17.5 -150 -17.5c-44 0 -88.167 4.83301 -132.5 14.5s-90.166 27.5 -137.499 53.5l-133 -130
c-30.667 36 -70.667 78.333 -120 127l130 122c-27.333 44.667 -46 87.667 -56 129s-15 82.666 -15 123.999c0 55.333 8 109 24 161s39.333 98.667 70 140zM633.999 978c-50 0 -96.335 -12.166 -139.002 -36.499s-74.167 -60.166 -94.5 -107.499s-30.5 -99.333 -30.5 -156
c0 -52 8.66699 -98.333 26 -139s45.333 -73.5 84 -98.5s85.334 -37.5 140.001 -37.5c53.333 0 100.5 12.333 141.5 37s71.833 61.167 92.5 109.5s31 101.833 31 160.5c0 53.333 -9.16699 100.666 -27.5 141.999s-47.166 72.666 -86.499 93.999s-85 32 -137 32z" />
    <glyph glyph-name="yen" unicode="&#xa5;" 
d="M111 446c6 49.333 10.334 104.002 13.001 164.002c161.333 -3.33301 278 -5 350 -5l-98 175l-123 -1l-147 -3c6.66699 54.667 11 109.334 13 164.001c98 -2 154.333 -3 169 -3l-245 428c56 -1.33301 105 -2 147 -2c43.333 0 92.333 0.666992 147 2
c40.667 -86.667 91 -185.334 151 -296.001l146 -276l193.5 317.5c67.667 106.333 119.167 191.166 154.5 254.499c56.667 -1.33301 103.667 -2 141 -2c38.667 0 85.667 0.666992 141 2l-283 -428l194 3c-8 -50.667 -14 -105.334 -18 -164.001
c-148.667 3.33301 -240.334 5 -275.001 5l-112 -176l86 1l104 1l179 3c-8 -51.333 -14 -106 -18 -164c-163.333 3.33301 -290 5 -380 5l-10 -199c-2 -36.667 -4.33301 -120.667 -7 -252c-56 1.33301 -102.667 2 -140 2c-38.667 0 -85.667 -0.666992 -141 -2l26 335l6 116
l-87 -1l-122 -1z" />
    <glyph glyph-name="brokenbar" unicode="&#xa6;" horiz-adv-x="1024" 
d="M383 1365h259v-707h-259v707zM383 314h259v-655h-259v655z" />
    <glyph glyph-name="section" unicode="&#xa7;" horiz-adv-x="1162" 
d="M967 1327c-1.33301 -21.333 -2.50098 -54.4961 -3.50098 -99.4961s-1.5 -78.833 -1.5 -101.5c-64 24.667 -115.667 40.834 -155 48.501s-73.333 11.5 -102 11.5c-35.333 0 -65.5 -6.33301 -90.5 -19s-45.167 -30.334 -60.5 -53.001s-23 -47.334 -23 -74.001s6 -50 18 -70
s27.667 -38.5 47 -55.5s67.666 -48.5 144.999 -94.5l103 -64.5c35.333 -23 67.333 -46.667 96 -71s51.334 -50.5 68.001 -78.5s28.334 -55.5 35.001 -82.5s10 -54.5 10 -82.5c0 -65.333 -17.667 -129 -53 -191s-92.666 -121.333 -171.999 -178
c23.333 -24 41 -45.167 53 -63.5s22.333 -41.333 31 -69s13 -57.5 13 -89.5c0 -63.333 -17 -120.833 -51 -172.5s-81 -92.167 -141 -121.5s-127.667 -44 -203 -44c-52 0 -107.5 5.16699 -166.5 15.5s-128.5 27.833 -208.5 52.5c2.66699 63.333 4 135.666 4 216.999
c64 -27.333 117.667 -47 161 -59s82.666 -18 117.999 -18s66.666 6 93.999 18s48.666 30.833 63.999 56.5s23 52.5 23 80.5c0 16 -2.16699 30.833 -6.5 44.5s-13.833 29.5 -28.5 47.5s-37.5 38 -68.5 60s-63.833 43 -98.5 63
c-75.333 42.667 -120.666 69.334 -135.999 80.001c-37.333 25.333 -70.666 54.833 -99.999 88.5s-50.666 67.834 -63.999 102.501s-20 72 -20 112c0 68 19.333 133.5 58 196.5s96.667 119.833 174 170.5c-25.333 27.333 -44 50.166 -56 68.499s-21.833 40.166 -29.5 65.499
s-11.5 52.666 -11.5 81.999c0 59.333 16.167 115.666 48.5 168.999s77.166 94 134.499 122s131 42 221 42c48 0 95.667 -3.83301 143 -11.5s110 -24.5 188 -50.5zM683.999 196.004c24 17.333 42.001 31.999 54.001 43.999s22.833 25.833 32.5 41.5s17 30.334 22 44.001
s7.5 27.5 7.5 41.5s-2.66699 33.167 -8 57.5s-11.666 44.833 -18.999 61.5s-15.833 31.167 -25.5 43.5s-22.334 25 -38.001 38s-37.834 27.833 -66.501 44.5l-92 53l-76 46c-42 -23.333 -74.667 -52.5 -98 -87.5s-35 -71.167 -35 -108.5c0 -20.667 3.5 -40.5 10.5 -59.5
s17.833 -37.5 32.5 -55.5s37.667 -38.167 69 -60.5s72 -48.333 122 -78z" />
    <glyph glyph-name="dieresis" unicode="&#xa8;" horiz-adv-x="1024" 
d="M608 1196l9.00098 162c44 -1.33301 78.667 -2 104 -2s58.666 0.666992 99.999 2l-6 -162c-40 1.33301 -73 2 -99 2c-22.667 0 -58.667 -0.666992 -108 -2zM270.001 1196l8.00098 162c44.667 -1.33301 79.667 -2 105 -2s58.666 0.666992 99.999 2
c-1.33301 -14 -3.33301 -68 -6 -162c-40 1.33301 -73 2 -99 2c-22.667 0 -58.667 -0.666992 -108 -2z" />
    <glyph glyph-name="copyright" unicode="&#xa9;" horiz-adv-x="1660" 
d="M864 1386c104 0 202.001 -14.498 294.001 -43.498s172 -75.833 240 -140.5s116.667 -138.5 146 -221.5s44 -172.167 44 -267.5c0 -102.667 -16.333 -201.167 -49 -295.5s-82.167 -174 -148.5 -239s-149.833 -114.5 -250.5 -148.5s-206 -51 -316 -51
c-106 0 -208 15.667 -306 47s-179.667 77.333 -245 138s-113 133.167 -143 217.5s-45 173.166 -45 266.499c0 104.667 18.5 205.667 55.5 303s90.333 178.666 160 243.999s154.167 113.5 253.5 144.5s202.666 46.5 309.999 46.5zM861.001 1271
c-90 0 -175.997 -12.833 -257.997 -38.5s-153 -68 -213 -127s-104.167 -128.333 -132.5 -208s-42.5 -162.834 -42.5 -249.501c0 -80.667 14.5 -157.834 43.5 -231.501s71.667 -135 128 -184s122.833 -84.333 199.5 -106s157.667 -32.5 243 -32.5
c90 0 175.167 12.167 255.5 36.5s149.166 64.5 206.499 120.5s99.5 122.833 126.5 200.5s40.5 159.834 40.5 246.501c0 82.667 -12.333 160.834 -37 234.501s-64.334 136.667 -119.001 189s-120.334 90.333 -197.001 114s-158 35.5 -244 35.5zM1102 463.002
c-10 -48.667 -17.9951 -97 -23.9951 -145c-80.667 -14 -152.334 -21 -215.001 -21c-86.667 0 -163.334 16.333 -230.001 49s-115.667 76.5 -147 131.5s-47 119.833 -47 194.5c0 82 19.667 154.833 59 218.5s94.166 111.334 164.499 143.001s148.833 47.5 235.5 47.5
c62.667 0 131 -7 205 -21c2 -47.333 5 -95 9 -143c-46 12.667 -83.5 21 -112.5 25s-56.5 6 -82.5 6c-56.667 0 -107.334 -11.167 -152.001 -33.5s-79.334 -55.333 -104.001 -99s-37 -90.834 -37 -141.501c0 -76 23.667 -136.167 71 -180.5s112.333 -66.5 195 -66.5
c56 0 126.667 12 212 36z" />
    <glyph glyph-name="ordfeminine" unicode="&#xaa;" horiz-adv-x="742" 
d="M126 1008c7.33301 36.667 11.9951 62.6719 13.9951 78.0049l7 53c104 24 196.667 36 278 36c49.333 0 93.5 -5.83301 132.5 -17.5s68.333 -29.334 88 -53.001s29.5 -55.834 29.5 -96.501c0 -24 -3 -81.333 -9 -172s-9.66699 -187.334 -11 -290.001
c-33.333 0.666992 -64.666 1 -93.999 1s-61.333 -0.333008 -96 -1c4.66699 43.333 7.83398 76.166 9.50098 98.499s5.83398 92.5 12.501 210.5c-15.333 -8.66699 -28.666 -15.334 -39.999 -20.001s-33 -11.167 -65 -19.5s-57.167 -15.666 -75.5 -21.999
s-34.166 -14 -47.499 -23s-22.666 -18.333 -27.999 -28s-8 -20.167 -8 -31.5c0 -20 8.16699 -37.167 24.5 -51.5s42.166 -21.5 77.499 -21.5c16.667 0 32 1.33301 46 4s35 8.66699 63 18c-12 -36 -23.333 -74.667 -34 -116c-42.667 -8 -83.667 -12 -123 -12
c-53.333 0 -96.833 7 -130.5 21s-58.667 36.167 -75 66.5s-24.5 60.833 -24.5 91.5c0 34 10.833 65.333 32.5 94s52.667 52 93 70s101.5 35.333 183.5 52c54.667 11.333 89.667 23.166 105 35.499s23 26.5 23 42.5c0 18 -8.5 32.333 -25.5 43s-42.833 16 -77.5 16
c-74 0 -159 -18.667 -255 -56z" />
    <glyph glyph-name="guillemotleft" unicode="&#xab;" horiz-adv-x="967" 
d="M474 877l-130 -280l-28 -67l85 -233l45 -114c-38 1.33301 -70.333 2 -97 2c-26 0 -56 -0.666992 -90 -2l-29 59c-8 17.333 -21.667 44.333 -41 81l-49 94l-58 113l198 347c39.333 -1.33301 70.333 -2 93 -2c26 0 59.667 0.666992 101 2zM844 877l-113.999 -246l-44 -101
l52 -146l34 -87l44 -114c-38 1.33301 -70.333 2 -97 2c-25.333 0 -55.333 -0.666992 -90 -2l-69 140l-107 207l197 347c39.333 -1.33301 70.666 -2 93.999 -2c26 0 59.333 0.666992 100 2z" />
    <glyph glyph-name="logicalnot" unicode="&#xac;" horiz-adv-x="1024" 
d="M704 0v357h-636v226h887v-583h-251z" />
    <glyph glyph-name="sfthyphen" unicode="&#xad;" horiz-adv-x="528" 
d="M-3 428c6 64.667 9.66895 132 11.002 202c96.667 -2.66699 182.667 -4 258 -4c76 0 162.333 1.33301 259 4c-5.33301 -56.667 -9 -124 -11 -202c-96.667 3.33301 -183.334 5 -260.001 5c-74.667 0 -160.334 -1.66699 -257.001 -5z" />
    <glyph glyph-name="registered" unicode="&#xae;" horiz-adv-x="1660" 
d="M864 1386c104 0 202.001 -14.498 294.001 -43.498s172 -75.833 240 -140.5s116.667 -138.5 146 -221.5s44 -172.167 44 -267.5c0 -102.667 -16.333 -201.167 -49 -295.5s-82.167 -174 -148.5 -239s-149.833 -114.5 -250.5 -148.5s-206 -51 -316 -51
c-106 0 -208 15.667 -306 47s-179.667 77.333 -245 138s-113 133.167 -143 217.5s-45 173.166 -45 266.499c0 104.667 18.5 205.667 55.5 303s90.333 178.666 160 243.999s154.167 113.5 253.5 144.5s202.666 46.5 309.999 46.5zM861.001 1271
c-90 0 -175.997 -12.833 -257.997 -38.5s-153 -68 -213 -127s-104.167 -128.333 -132.5 -208s-42.5 -162.834 -42.5 -249.501c0 -80.667 14.5 -157.834 43.5 -231.501s71.667 -135 128 -184s122.833 -84.333 199.5 -106s157.667 -32.5 243 -32.5
c90 0 175.167 12.167 255.5 36.5s149.166 64.5 206.499 120.5s99.5 122.833 126.5 200.5s40.5 159.834 40.5 246.501c0 82.667 -12.333 160.834 -37 234.501s-64.334 136.667 -119.001 189s-120.334 90.333 -197.001 114s-158 35.5 -244 35.5zM528.004 310.002
c11.333 109.333 19.835 234.668 25.502 376.001s8.5 269 8.5 383c60 -1.33301 100.333 -2 121 -2c22 0 50.833 0.5 86.5 1.5s69.5 1.5 101.5 1.5c45.333 0 85.666 -2.33301 120.999 -7s67 -16 95 -34s48.5 -39.667 61.5 -65s19.5 -54.333 19.5 -87
c0 -54.667 -16 -101.5 -48 -140.5s-85 -67.167 -159 -84.5c19.333 -39.333 50.666 -95.5 93.999 -168.5l101 -174.5c-42.667 1.33301 -77.334 2 -104.001 2c-24.667 0 -57.667 -0.333008 -99 -1l-56 130c-3.33301 7.33301 -10.5 22.166 -21.5 44.499
s-31.5 61.833 -61.5 118.5l-70 136c34.667 -6 62.667 -9 84 -9c32 0 60.667 5 86 15s44.5 25 57.5 45s19.5 41.333 19.5 64c0 17.333 -3.66699 32 -11 44s-17.666 21.5 -30.999 28.5s-30 11.667 -50 14s-47.667 3.5 -83 3.5c-20 0 -47.333 -0.666992 -82 -2
c-4 -76 -8.16699 -184.333 -12.5 -325s-6.5 -243 -6.5 -307c-40 0.666992 -71.667 1 -95 1c-25.333 0 -56 -0.333008 -92 -1z" />
    <glyph glyph-name="overscore" unicode="&#xaf;" horiz-adv-x="1024" 
d="M0 1600h1024v-160h-1024v160z" />
    <glyph glyph-name="degree" unicode="&#xb0;" horiz-adv-x="604" 
d="M536 1176c0 -36.667 -9.33203 -70.999 -27.999 -102.999s-44 -57.167 -76 -75.5s-66.333 -27.5 -103 -27.5s-71 9.16699 -103 27.5s-57.167 43.666 -75.5 75.999s-27.5 66.5 -27.5 102.5c0 36.667 9.16699 71 27.5 103s43.5 57.167 75.5 75.5s66.333 27.5 103 27.5
s71.167 -9.16699 103.5 -27.5s57.666 -43.5 75.999 -75.5s27.5 -66.333 27.5 -103zM427.001 1176c0 28 -9.5 51.833 -28.5 71.5s-42.167 29.5 -69.5 29.5c-26.667 0 -49.667 -9.83301 -69 -29.5s-29 -43.5 -29 -71.5s9.66699 -51.833 29 -71.5s42.333 -29.5 69 -29.5
c27.333 0 50.5 10 69.5 30s28.5 43.667 28.5 71z" />
    <glyph glyph-name="plusminus" unicode="&#xb1;" 
d="M109 721c4.66699 36.667 8.33203 96.999 10.999 180.999l124 -1l176 -2l129 -1l11 357c22.667 -1.33301 54.667 -2 96 -2c42 0 74 0.666992 96 2c-4.66699 -72.667 -11.334 -191.667 -20.001 -357l436 4c-6 -51.333 -9.66699 -111.666 -11 -180.999
c-177.333 2.66699 -321.666 4 -432.999 4l-11 -357c-25.333 1.33301 -57.333 2 -96 2c-39.333 0 -71.333 -0.666992 -96 -2c4.66699 63.333 11.334 182.333 20.001 357l-164 -1zM81.998 123.999c4 30 7.66797 90.333 11.001 181c150 -2.66699 324.333 -4 523 -4
c197.333 0 372.333 1.33301 525 4c-5.33301 -52 -9 -112.333 -11 -181c-189.333 2.66699 -364 4 -524 4c-160.667 0 -335.334 -1.33301 -524.001 -4z" />
    <glyph glyph-name="twosuperior" unicode="&#xb2;" horiz-adv-x="792" 
d="M85 546c0.666992 6.66699 2.66504 49.999 5.99805 129.999c99.333 88.667 187.166 174.334 263.499 257.001s122.833 140.334 139.5 173.001c8.66699 16.667 13 33 13 49c0 21.333 -6.66699 38.333 -20 51s-31.166 22.5 -53.499 29.5s-48.166 10.5 -77.499 10.5
c-28 0 -59 -2.5 -93 -7.5s-78.333 -14.167 -133 -27.5c10.667 54 18.667 101.667 24 143c94 17.333 185 26 273 26c61.333 0 114.333 -8 159 -24s78.667 -38.333 102 -67s35 -61 35 -97c0 -18 -2.33301 -36.833 -7 -56.5s-16 -45.167 -34 -76.5s-46.667 -70 -86 -116
s-81.166 -91.833 -125.499 -137.5s-89.5 -89.167 -135.5 -130.5l43 -1c88 0 152.333 0.5 193 1.5s81.667 3.5 123 7.5c-5.33301 -56.667 -9 -102.334 -11 -137.001c-92 0.666992 -188.667 1 -290 1c-116 0 -218.667 -0.333008 -308 -1z" />
    <glyph glyph-name="threesuperior" unicode="&#xb3;" horiz-adv-x="792" 
d="M103 564c-5.33301 74 -9.99707 124.334 -13.9971 151.001c86.667 -31.333 166.334 -47 239.001 -47c55.333 0 100.166 12.333 134.499 37s51.5 56.334 51.5 95.001c0 35.333 -15.5 62.666 -46.5 81.999s-81.167 29 -150.5 29c-30 0 -62.667 -2 -98 -6
c6 68 9.33301 115 10 141c28 -4 53.333 -6 76 -6c32.667 0 65.167 3 97.5 9s57 19 74 39s25.5 41.667 25.5 65c0 27.333 -11.167 50.166 -33.5 68.499s-63.833 27.5 -124.5 27.5c-59.333 0 -125 -8.66699 -197 -26c2.66699 10 7.66699 33.167 15 69.5s11.333 59.5 12 69.5
c83.333 12 158.666 18 225.999 18c66.667 0 124.167 -7.5 172.5 -22.5s83.666 -38.333 105.999 -70s33.5 -68.167 33.5 -109.5c0 -28 -5.5 -55.333 -16.5 -82s-26.667 -49.5 -47 -68.5s-52.833 -37.833 -97.5 -56.5c57.333 -13.333 98.666 -36 123.999 -68
s38 -71.667 38 -119s-13.5 -90.5 -40.5 -129.5s-68 -69.167 -123 -90.5s-118.167 -32 -189.5 -32c-42 0 -82 2.33301 -120 7s-83.667 13 -137 25z" />
    <glyph glyph-name="acute" unicode="&#xb4;" horiz-adv-x="1024" 
d="M408 1154l37 91.999l27 72l31 79c54 -1.33301 103.667 -2 149 -2c37.333 0 87.333 0.666992 150 2c-44.667 -55.333 -78 -98.666 -100 -129.999l-83 -113c-35.333 1.33301 -71.333 2 -108 2c-32.667 0 -67 -0.666992 -103 -2z" />
    <glyph glyph-name="mu" unicode="&#xb5;" 
d="M146 1017c62.667 -1.33301 112.337 -1.99414 149.004 -1.99414c37.333 0 83.333 0.666992 138 2c-24 -320.667 -36 -520 -36 -598c0 -84 17.833 -141.167 53.5 -171.5s78.167 -45.5 127.5 -45.5c34 0 65.667 6.66699 95 20s54.333 31.666 75 54.999s38 56 52 98
c11.333 31.333 19.666 74.666 24.999 129.999c4 36.667 8 100 12 190c4.66699 111.333 8 218.666 10 321.999c65.333 -1.33301 115.666 -2 150.999 -2c39.333 0 83.666 0.666992 132.999 2c-13.333 -164 -25.333 -343.333 -36 -538
c-7.33301 -140.667 -12.333 -300.334 -15 -479.001c-58 1.33301 -103 2 -135 2c-38.667 0 -83 -0.666992 -133 -2l5 166c-16.667 -36 -32.5 -64 -47.5 -84s-33.833 -37.833 -56.5 -53.5s-49.5 -27.667 -80.5 -36s-63.167 -12.5 -96.5 -12.5
c-25.333 0 -48.833 2.16699 -70.5 6.5s-39.834 10.166 -54.501 17.499s-26.167 14.833 -34.5 22.5s-20.833 21.5 -37.5 41.5v-77l-1 -188l-2 -163c0 -14 0.666992 -47 2 -99c-56.667 0.666992 -100.667 1 -132 1l-137 -1c16.667 191.333 33.667 445.166 51 761.499
s26 554.5 26 714.5z" />
    <glyph glyph-name="paragraph" unicode="&#xb6;" 
d="M1021 1228l-18 -364.997l-52 -1202c0 -5.33301 -1.66699 -50.333 -5 -135c-22 1.33301 -47 2 -75 2s-53 -0.666992 -75 -2l45 957l29 746h-124l-74 -1703c-22.667 1.33301 -48 2 -76 2s-53 -0.666992 -75 -2l47 1078c-44 2 -74 4 -90 6
c-33.333 4.66699 -66.333 12.667 -99 24c-43.333 15.333 -81 34.666 -113 57.999s-59.333 51 -82 83s-40 67.167 -52 105.5s-18 78.833 -18 121.5c0 57.333 10.667 111.666 32 162.999s51.833 93.166 91.5 125.499s81.167 52.833 124.5 61.5s98 13 164 13l337 -2
c116 0 225.667 0.666992 329 2c-4 -42 -6.66699 -88.667 -8 -140c-20 0.666992 -74.333 1.66699 -163 3z" />
    <glyph glyph-name="middot" unicode="&#xb7;" horiz-adv-x="319" 
d="M9 554c2.66699 48.667 6.66699 146 12 292l164 -3c18 0 65.667 1 143 3c-3.33301 -38 -8.33301 -135.333 -15 -292l-142 2c-9.33301 0 -63.333 -0.666992 -162 -2z" />
    <glyph glyph-name="cedilla" unicode="&#xb8;" horiz-adv-x="1024" 
d="M696 -90l-81 -158l-48 -97c-50 0.666992 -99 1 -147 1c-47.333 0 -98.333 -0.333008 -153 -1c64.667 76.667 133.667 163 207 259c28.667 -4.66699 69.334 -7 122.001 -7c31.333 0 64.666 1 99.999 3z" />
    <glyph glyph-name="onesuperior" unicode="&#xb9;" horiz-adv-x="792" 
d="M334 546c4 50.667 6.66602 92.001 7.99902 124.001l11 206c6 105.333 10.667 211.333 14 318c-16 -8.66699 -53.667 -33.334 -113 -74.001c5.33301 64 8 120 8 168c66 38 107.667 63.667 125 77c20 -0.666992 48.667 -1 86 -1c40.667 0 73.334 0.666992 98.001 2
c-8 -107.333 -17.667 -266 -29 -476c-6 -111.333 -9 -226 -9 -344c-28 0.666992 -59.333 1 -94 1c-40.667 0 -75.667 -0.333008 -105 -1z" />
    <glyph glyph-name="ordmasculine" unicode="&#xba;" horiz-adv-x="806" 
d="M427 1175c64.667 0 123.999 -12.3301 177.999 -36.9971s94.833 -60.834 122.5 -108.501s41.5 -101.5 41.5 -161.5c0 -64.667 -15.5 -124.167 -46.5 -178.5s-73.667 -94.166 -128 -119.499s-115.166 -38 -182.499 -38c-65.333 0 -124.666 12.167 -177.999 36.5
s-94.333 61.166 -123 110.499s-43 103.666 -43 162.999c0 68.667 15.833 128.667 47.5 180s75.667 89.666 132 114.999s116.166 38 179.499 38zM426.999 1037c-34 0 -64.167 -7.83105 -90.5 -23.498s-46 -39.334 -59 -71.001s-19.5 -66.167 -19.5 -103.5
c0 -54.667 14.167 -97.167 42.5 -127.5s65.5 -45.5 111.5 -45.5c34.667 0 64.667 8.16699 90 24.5s44.5 40.333 57.5 72s19.5 66.5 19.5 104.5c0 32 -5.33301 61.167 -16 87.5s-28 46.666 -52 60.999s-52 21.5 -84 21.5z" />
    <glyph glyph-name="guillemotright" unicode="&#xbb;" horiz-adv-x="970" 
d="M486 877c42.667 -1.33301 75.999 -1.99902 99.999 -1.99902c24.667 0 56 0.666992 94 2c65.333 -143.333 121 -259 167 -347l-102 -169.5l-106 -177.5c-36 1.33301 -66 2 -90 2c-28 0 -60 -0.666992 -96 -2l105 222l55 125l-18 55
c-5.33301 15.333 -18.666 51.666 -39.999 108.999zM114.999 877.001c42.667 -1.33301 76.333 -1.99902 101 -1.99902c24 0 55 0.666992 93 2c61.333 -134.667 117 -250.334 167 -347.001l-101.5 -168.5c-41.667 -67.667 -76.834 -127.167 -105.501 -178.5
c-36 1.33301 -66 2 -90 2c-28.667 0 -61 -0.666992 -97 -2l106 222c14 30.667 32 72.334 54 125.001l-18 55c-5.33301 15.333 -18.666 51.666 -39.999 108.999z" />
    <glyph glyph-name="onequarter" unicode="&#xbc;" horiz-adv-x="1792" 
d="M334 546c4 50.667 6.66602 92.001 7.99902 124.001l11 206c6 105.333 10.667 211.333 14 318c-16 -8.66699 -53.667 -33.334 -113 -74.001c5.33301 64 8 120 8 168c66 38 107.667 63.667 125 77c20 -0.666992 48.667 -1 86 -1c40.667 0 73.334 0.666992 98.001 2
c-8 -107.333 -17.667 -266 -29 -476c-6 -111.333 -9 -226 -9 -344c-28 0.666992 -59.333 1 -94 1c-40.667 0 -75.667 -0.333008 -105 -1zM441.999 0.000976562l326.001 573l439 792c32 -1.33301 57 -2 75 -2c19.333 0 46 0.666992 80 2l-265 -465l-416 -750l-78 -150
c-26.667 1.33301 -49.334 2 -68.001 2c-24.667 0 -55.667 -0.666992 -93 -2zM1387 0.000976562c6 64.667 11.001 146 15.001 244l-75 -1l-148 -1c-72 -1.33301 -112.667 -2 -122 -2c1.33301 10.667 2.83301 35.167 4.5 73.5s2.5 64.833 2.5 79.5l118.5 152l106 142.5
l89.5 131.5c40 -0.666992 81 -1 123 -1s78.667 0.333008 110 1c-12 -173.333 -19.333 -320.333 -22 -441c9.33301 -0.666992 31.333 -1 66 -1c33.333 0 55.666 1 66.999 3c-2 -30 -3 -67.667 -3 -113v-25c-26 1.33301 -71.333 2 -136 2
c-1.33301 -19.333 -2.5 -51.333 -3.5 -96s-1.5 -81 -1.5 -109l1 -39c-32 0.666992 -63.333 1 -94 1c-30 0 -62.667 -0.333008 -98 -1zM1425 372.001l13 307c-32.667 -48 -67.667 -96.667 -105 -146l-119 -161h211z" />
    <glyph glyph-name="onehalf" unicode="&#xbd;" horiz-adv-x="1792" 
d="M334 546c4 50.667 6.66602 92.001 7.99902 124.001l11 206c6 105.333 10.667 211.333 14 318c-16 -8.66699 -53.667 -33.334 -113 -74.001c5.33301 64 8 120 8 168c66 38 107.667 63.667 125 77c20 -0.666992 48.667 -1 86 -1c40.667 0 73.334 0.666992 98.001 2
c-8 -107.333 -17.667 -266 -29 -476c-6 -111.333 -9 -226 -9 -344c-28 0.666992 -59.333 1 -94 1c-40.667 0 -75.667 -0.333008 -105 -1zM441.999 0.000976562l326.001 573l439 792c32 -1.33301 57 -2 75 -2c19.333 0 46 0.666992 80 2l-265 -465l-416 -750l-78 -150
c-26.667 1.33301 -49.334 2 -68.001 2c-24.667 0 -55.667 -0.666992 -93 -2zM1062 0.000976562c0.666992 6.66699 2.66309 49.999 5.99609 129.999l140 130.5c46.667 45 93.334 93.333 140.001 145s78.834 89.667 96.501 114s28.5 42.5 32.5 54.5s6 23.333 6 34
c0 22 -6.5 39.333 -19.5 52s-30.667 22.5 -53 29.5s-48.5 10.5 -78.5 10.5c-27.333 0 -58 -2.5 -92 -7.5s-78.333 -14.167 -133 -27.5c10.667 55.333 18.667 103 24 143c93.333 16.667 184 25 272 25c58.667 0 110 -7.16699 154 -21.5s78.833 -36 104.5 -65
s38.5 -62.5 38.5 -100.5c0 -18.667 -2.33301 -37.667 -7 -57s-16.167 -44.666 -34.5 -75.999s-47 -70 -86 -116s-80.667 -91.833 -125 -137.5s-89.833 -89.167 -136.5 -130.5l44 -1c88 0 152.333 0.5 193 1.5s81.334 3.5 122.001 7.5l-5 -63c-2 -18 -4 -42.667 -6 -74
c-91.333 0.666992 -188 1 -290 1c-115.333 0 -217.666 -0.333008 -306.999 -1z" />
    <glyph glyph-name="threequarters" unicode="&#xbe;" horiz-adv-x="1792" 
d="M103 564c-5.33301 74 -9.99707 124.334 -13.9971 151.001c86.667 -31.333 166.334 -47 239.001 -47c55.333 0 100.166 12.333 134.499 37s51.5 56.334 51.5 95.001c0 35.333 -15.5 62.666 -46.5 81.999s-81.167 29 -150.5 29c-30 0 -62.667 -2 -98 -6
c6 68 9.33301 115 10 141c28 -4 53.333 -6 76 -6c32.667 0 65.167 3 97.5 9s57 19 74 39s25.5 41.667 25.5 65c0 27.333 -11.167 50.166 -33.5 68.499s-63.833 27.5 -124.5 27.5c-59.333 0 -125 -8.66699 -197 -26c2.66699 10 7.66699 33.167 15 69.5s11.333 59.5 12 69.5
c83.333 12 158.666 18 225.999 18c66.667 0 124.167 -7.5 172.5 -22.5s83.666 -38.333 105.999 -70s33.5 -68.167 33.5 -109.5c0 -28 -5.5 -55.333 -16.5 -82s-26.667 -49.5 -47 -68.5s-52.833 -37.833 -97.5 -56.5c57.333 -13.333 98.666 -36 123.999 -68
s38 -71.667 38 -119s-13.5 -90.5 -40.5 -129.5s-68 -69.167 -123 -90.5s-118.167 -32 -189.5 -32c-42 0 -82 2.33301 -120 7s-83.667 13 -137 25zM442.003 0.000976562l286.001 503l479 862c32 -1.33301 57 -2 75 -2c19.333 0 46 0.666992 80 2l-270 -473l-411 -742
l-78 -150c-26.667 1.33301 -49.334 2 -68.001 2c-24.667 0 -55.667 -0.666992 -93 -2zM1386 0.000976562c8 88.667 13.3311 170.001 15.998 244.001l-75 -1l-148 -1c-72 -1.33301 -113 -2 -123 -2c2 11.333 3.83301 36.166 5.5 74.499s2.5 64.5 2.5 78.5l117.5 151.5
l106 142c25.667 35.667 55.834 79.834 90.501 132.501c40 -0.666992 80.667 -1 122 -1c42 0 78.667 0.333008 110 1c-11.333 -163.333 -18.666 -310.333 -21.999 -441c10 -0.666992 32 -1 66 -1s56.333 1 67 3c-1.33301 -28.667 -2 -66.334 -2 -113.001v-25
c-26 1.33301 -71.333 2 -136 2c-1.33301 -20 -2.5 -51.167 -3.5 -93.5s-1.5 -79.5 -1.5 -111.5l1 -39c-32 0.666992 -63.333 1 -94 1c-30 0 -63 -0.333008 -99 -1zM1425 372.002l12 307c-29.333 -44 -66 -95.333 -110 -154l-114 -153h212z" />
    <glyph glyph-name="questiondown" unicode="&#xbf;" horiz-adv-x="1012" 
d="M728 1017c-6.66699 -80.667 -13.002 -165 -19.002 -253c-55.333 1.33301 -106 2 -152 2c-50 0 -100.333 -0.666992 -151 -2c4 52.667 6.83301 100 8.5 142s3.83398 79 6.50098 111c71.333 -1.33301 121 -2 149 -2c28.667 0 81.334 0.666992 158.001 2zM688.998 668
l-6.01074 -99.9971c-2 -32.667 -4.66699 -61.334 -8 -86.001s-7.16602 -44 -11.499 -58s-10.5 -28 -18.5 -42s-21.667 -32.833 -41 -56.5s-48.666 -56.834 -87.999 -99.501l-84 -93c-17.333 -19.333 -32.166 -38.5 -44.499 -57.5s-20.666 -35.167 -24.999 -48.5
s-6.5 -27 -6.5 -41c0 -32 10.667 -59.833 32 -83.5s52 -40.667 92 -51s83.667 -15.5 131 -15.5c44.667 0 92 3.83301 142 11.5s112.333 22.5 187 44.5l-17 -85c-10.667 -52.667 -19 -102 -25 -148c-135.333 -20.667 -263.666 -31 -384.999 -31
c-63.333 0 -124.666 5.66699 -183.999 17s-111.666 30.5 -156.999 57.5s-80.166 61.167 -104.499 102.5s-36.5 84.666 -36.5 129.999c0 24 2.83301 48 8.5 72s14.5 48.167 26.5 72.5s27.667 50 47 77s40.333 53 63 78s55.334 59.167 98.001 102.5
c34.667 36 55.667 58.333 63 67c16.667 18.667 29.334 35.334 38.001 50.001s15.667 30 21 46s9.83301 34.667 13.5 56s8.83398 58.666 15.501 111.999c43.333 -1.33301 86 -2 128 -2s87.333 0.666992 136 2z" />
    <glyph glyph-name="Agrave" unicode="&#xc0;" horiz-adv-x="1542" 
d="M-63 0c69.333 122.667 150.668 274.332 244.001 454.999l263 505c82 156 150 291 204 405c86.667 -1.33301 148 -2 184 -2c63.333 0 125.333 0.666992 186 2l143 -409l311 -846l43 -110l-150 2c-34.667 0 -93 -0.666992 -175 -2c-16 59.333 -41.167 139.333 -75.5 240
s-63.5 182.334 -87.5 245.001h-526l-228 -485l-163 2c-30.667 0 -88.334 -0.666992 -173.001 -2zM590.002 692.998h383l-157 462l-81 -168zM946.002 1492c-38.667 1.33301 -73.002 2 -103.002 2c-39.333 0 -75.666 -0.666992 -108.999 -2l-75 109
c-23.333 34 -55.666 78.667 -96.999 134c64 -1.33301 114.333 -2 151 -2c46 0 95.333 0.666992 148 2l26 -75l28 -80z" />
    <glyph glyph-name="Aacute" unicode="&#xc1;" horiz-adv-x="1542" 
d="M-63 0c69.333 122.667 150.668 274.332 244.001 454.999l263 505c82 156 150 291 204 405c86.667 -1.33301 148 -2 184 -2c63.333 0 125.333 0.666992 186 2l143 -409l311 -846l43 -110l-150 2c-34.667 0 -93 -0.666992 -175 -2c-16 59.333 -41.167 139.333 -75.5 240
s-63.5 182.334 -87.5 245.001h-526l-228 -485l-163 2c-30.667 0 -88.334 -0.666992 -173.001 -2zM590.002 692.998h383l-157 462l-81 -168zM715.002 1492l37 91.999l27 72l31 79c54 -1.33301 103.667 -2 149 -2c37.333 0 87.333 0.666992 150 2
c-44.667 -55.333 -78 -98.666 -100 -129.999l-83 -113c-35.333 1.33301 -71.333 2 -108 2c-32.667 0 -67 -0.666992 -103 -2z" />
    <glyph glyph-name="Acircumflex" unicode="&#xc2;" horiz-adv-x="1542" 
d="M-63 0c69.333 122.667 150.668 274.332 244.001 454.999l263 505c82 156 150 291 204 405c86.667 -1.33301 148 -2 184 -2c63.333 0 125.333 0.666992 186 2l143 -409l311 -846l43 -110l-150 2c-34.667 0 -93 -0.666992 -175 -2c-16 59.333 -41.167 139.333 -75.5 240
s-63.5 182.334 -87.5 245.001h-526l-228 -485l-163 2c-30.667 0 -88.334 -0.666992 -173.001 -2zM590.002 692.998h383l-157 462l-81 -168zM566.002 1503c41.333 76 80.667 152.332 118 228.999c58.667 -0.666992 112.334 -1 161.001 -1c31.333 0 81.333 0.333008 150 1
c29.333 -69.333 64.666 -145.666 105.999 -228.999c-35.333 1.33301 -64 2 -86 2c-15.333 0 -43 -0.666992 -83 -2l-91 131l-100 -131c-26.667 1.33301 -54.667 2 -84 2c-34 0 -64.333 -0.666992 -91 -2z" />
    <glyph glyph-name="Atilde" unicode="&#xc3;" horiz-adv-x="1542" 
d="M-63 0c69.333 122.667 150.668 274.332 244.001 454.999l263 505c82 156 150 291 204 405c86.667 -1.33301 148 -2 184 -2c63.333 0 125.333 0.666992 186 2l143 -409l311 -846l43 -110l-150 2c-34.667 0 -93 -0.666992 -175 -2c-16 59.333 -41.167 139.333 -75.5 240
s-63.5 182.334 -87.5 245.001h-526l-228 -485l-163 2c-30.667 0 -88.334 -0.666992 -173.001 -2zM590.002 692.998h383l-157 462l-81 -168zM549.002 1516c0.666992 52 6.49512 95.335 17.4951 130.002s26.5 59.167 46.5 73.5s42.667 21.5 68 21.5
c8.66699 0 17.667 -0.833008 27 -2.5s18.666 -4.33398 27.999 -8.00098s17.5 -7.5 24.5 -11.5s20.5 -12.333 40.5 -25l52 -33c12 -7.33301 23.333 -13.666 34 -18.999s21.667 -8 33 -8c8.66699 0 16.5 1.66699 23.5 5s12.833 8.83301 17.5 16.5s7.83398 16.167 9.50098 25.5
s3.5 23 5.5 41c28 -1.33301 49 -2 63 -2s35.667 0.666992 65 2c0 -45.333 -4.5 -83.666 -13.5 -114.999s-23.5 -57.5 -43.5 -78.5s-47 -31.5 -81 -31.5c-12.667 0 -25.167 1.66699 -37.5 5s-25.166 8.66602 -38.499 15.999s-36.666 21.666 -69.999 42.999
s-55.333 34.333 -66 39s-21 7 -31 7c-11.333 0 -21.166 -3.66699 -29.499 -11s-13.666 -16.333 -15.999 -27s-4.16602 -28.334 -5.49902 -53.001c-26 1.33301 -47 2 -63 2s-36 -0.666992 -60 -2z" />
    <glyph glyph-name="Adieresis" unicode="&#xc4;" horiz-adv-x="1542" 
d="M-63 0c69.333 122.667 150.668 274.332 244.001 454.999l263 505c82 156 150 291 204 405c86.667 -1.33301 148 -2 184 -2c63.333 0 125.333 0.666992 186 2l143 -409l311 -846l43 -110l-150 2c-34.667 0 -93 -0.666992 -175 -2c-16 59.333 -41.167 139.333 -75.5 240
s-63.5 182.334 -87.5 245.001h-526l-228 -485l-163 2c-30.667 0 -88.334 -0.666992 -173.001 -2zM590.002 692.998h383l-157 462l-81 -168zM903.002 1538l9.00098 162c44 -1.33301 78.667 -2 104 -2s58.666 0.666992 99.999 2l-6 -162c-40 1.33301 -73 2 -99 2
c-22.667 0 -58.667 -0.666992 -108 -2zM565.003 1538l8.00098 162c44.667 -1.33301 79.667 -2 105 -2s58.666 0.666992 99.999 2c-1.33301 -14 -3.33301 -68 -6 -162c-40 1.33301 -73 2 -99 2c-22.667 0 -58.667 -0.666992 -108 -2z" />
    <glyph glyph-name="Aring" unicode="&#xc5;" horiz-adv-x="1542" 
d="M1030 1646c0 -34.667 -8.66699 -67.168 -26 -97.501s-41.166 -54.166 -71.499 -71.499s-62.833 -26 -97.5 -26s-67.167 8.83301 -97.5 26.5s-54.166 41.5 -71.499 71.5s-26 62.333 -26 97s8.66699 67.167 26 97.5s41.166 54.166 71.499 71.499s62.833 26 97.5 26
s67.167 -8.66699 97.5 -26s54.166 -41.166 71.499 -71.499s26 -62.833 26 -97.5zM921 1645c0 23.333 -8.5 43.5 -25.5 60.5s-37.167 25.5 -60.5 25.5s-43.5 -8.5 -60.5 -25.5s-25.5 -37.167 -25.5 -60.5c0 -24 8.5 -44.5 25.5 -61.5s37.167 -25.5 60.5 -25.5
s43.5 8.5 60.5 25.5s25.5 37.5 25.5 61.5zM-63 -0.000976562c69.333 122.667 150.668 274.332 244.001 454.999l263 505c82 156 150 291 204 405c86.667 -1.33301 148 -2 184 -2c63.333 0 125.333 0.666992 186 2l143 -409l311 -846l43 -110l-150 2
c-34.667 0 -93 -0.666992 -175 -2c-16 59.333 -41.167 139.333 -75.5 240s-63.5 182.334 -87.5 245.001h-526l-228 -485l-163 2c-30.667 0 -88.334 -0.666992 -173.001 -2zM590.002 692.997h383l-157 462l-81 -168z" />
    <glyph glyph-name="AE" unicode="&#xc6;" horiz-adv-x="1830" 
d="M-96 0l202.999 386.998l427 848l21 45l38 85c190 -1.33301 392 -2 606 -2l207 1l353 1c-6.66699 -76 -11.334 -146 -14.001 -210c-92 4 -207.667 6 -347 6c-42 0 -158.333 -1.33301 -349 -4l74 -363c59.333 -2 153 -3 281 -3c94 0 175.667 1.33301 245 4l-7 -95
c-2 -21.333 -3.66699 -58.666 -5 -111.999c-62.667 2 -139.667 3 -231 3c-117.333 0 -200 -1 -248 -3l81 -393h67c94.667 0 165 0.833008 211 2.5s103.667 5.16699 173 10.5c-6.66699 -74.667 -10.667 -144 -12 -208c-153.333 1.33301 -261.333 2 -324 2
c-113.333 0 -237.666 -0.666992 -372.999 -2l-7 45c-2.66699 12 -9 46.333 -19 103l-50 266c-4.66699 24.667 -11 55.334 -19 92.001h-421c-82.667 -158 -165 -326.667 -247 -506c-84 1.33301 -136.333 2 -157 2c-31.333 0 -83.666 -0.666992 -156.999 -2zM543.999 693.998
l328 -0.000976562l-30 164c-14 79.333 -25.667 142.333 -35 189s-18 92 -26 136c-22.667 -49.333 -42 -89.666 -58 -120.999z" />
    <glyph glyph-name="Ccedilla" unicode="&#xc7;" horiz-adv-x="1329" 
d="M1235 250c-14.667 -78 -27.3359 -157.333 -38.0029 -238c-76 -13.333 -145.667 -22.666 -209 -27.999s-117.666 -8 -162.999 -8c-100 0 -195.5 14 -286.5 42s-173 72.167 -246 132.5s-125.833 133.5 -158.5 219.5s-49 180 -49 282c0 110.667 19.667 213 59 307
s95.833 173.333 169.5 238s160.834 112.834 261.501 144.501s205.667 47.5 315 47.5c108 0 226 -12.333 354 -37c2 -59.333 4 -101.333 6 -126l7 -107c-75.333 20 -138 33.667 -188 41s-97.667 11 -143 11c-71.333 0 -139.833 -10.833 -205.5 -32.5
s-123.667 -56.167 -174 -103.5s-89 -104.5 -116 -171.5s-40.5 -136.833 -40.5 -209.5c0 -86.667 16.667 -164.334 50 -233.001s86.833 -124.334 160.5 -167.001s164.834 -64 273.501 -64c100.667 0 221 20 361 60zM958.998 -91c-48.667 -92.667 -95 -185.333 -139 -278
c-64 1.33301 -115.333 2 -154 2c-30.667 0 -82.667 -0.666992 -156 -2l97 127l115 154c38.667 -4 83.667 -6 135 -6c20 0 54 1 102 3z" />
    <glyph glyph-name="Egrave" unicode="&#xc8;" horiz-adv-x="1251" 
d="M117 0l28.998 383.001l21 443l13 403v136c164.667 -1.33301 336.334 -2 515.001 -2l192 1l289 1l-12 -216l-95 5c-26 1.33301 -62 2.33301 -108 3s-93 1 -141 1c-104 0 -171.167 -0.166992 -201.5 -0.5s-76.166 -1.5 -137.499 -3.5l-16 -355c91.333 -2 183.333 -3 276 -3
c64 0 172 2 324 6c-5.33301 -60.667 -10 -133.334 -14 -218.001c-178 2 -280 3 -306 3c-78.667 0 -176.667 -2 -294 -6l-16 -374l110 -1c32 0 105.333 0.666992 220 2l217 4l145 7c-6.66699 -77.333 -11.334 -150.333 -14.001 -219c-173.333 1.33301 -329.666 2 -468.999 2
l-329 -1zM787.998 1492c-38.667 1.33301 -73.002 2 -103.002 2c-39.333 0 -75.666 -0.666992 -108.999 -2l-75 109c-23.333 34 -55.666 78.667 -96.999 134c64 -1.33301 114.333 -2 151 -2c46 0 95.333 0.666992 148 2l26 -75l28 -80z" />
    <glyph glyph-name="Eacute" unicode="&#xc9;" horiz-adv-x="1251" 
d="M117 0l28.998 383.001l21 443l13 403v136c164.667 -1.33301 336.334 -2 515.001 -2l192 1l289 1l-12 -216l-95 5c-26 1.33301 -62 2.33301 -108 3s-93 1 -141 1c-104 0 -171.167 -0.166992 -201.5 -0.5s-76.166 -1.5 -137.499 -3.5l-16 -355c91.333 -2 183.333 -3 276 -3
c64 0 172 2 324 6c-5.33301 -60.667 -10 -133.334 -14 -218.001c-178 2 -280 3 -306 3c-78.667 0 -176.667 -2 -294 -6l-16 -374l110 -1c32 0 105.333 0.666992 220 2l217 4l145 7c-6.66699 -77.333 -11.334 -150.333 -14.001 -219c-173.333 1.33301 -329.666 2 -468.999 2
l-329 -1zM553.998 1492l37 91.999l27 72l31 79c54 -1.33301 103.667 -2 149 -2c37.333 0 87.333 0.666992 150 2c-44.667 -55.333 -78 -98.666 -100 -129.999l-83 -113c-35.333 1.33301 -71.333 2 -108 2c-32.667 0 -67 -0.666992 -103 -2z" />
    <glyph glyph-name="Ecircumflex" unicode="&#xca;" horiz-adv-x="1251" 
d="M117 0l28.998 383.001l21 443l13 403v136c164.667 -1.33301 336.334 -2 515.001 -2l192 1l289 1l-12 -216l-95 5c-26 1.33301 -62 2.33301 -108 3s-93 1 -141 1c-104 0 -171.167 -0.166992 -201.5 -0.5s-76.166 -1.5 -137.499 -3.5l-16 -355c91.333 -2 183.333 -3 276 -3
c64 0 172 2 324 6c-5.33301 -60.667 -10 -133.334 -14 -218.001c-178 2 -280 3 -306 3c-78.667 0 -176.667 -2 -294 -6l-16 -374l110 -1c32 0 105.333 0.666992 220 2l217 4l145 7c-6.66699 -77.333 -11.334 -150.333 -14.001 -219c-173.333 1.33301 -329.666 2 -468.999 2
l-329 -1zM407.998 1503c41.333 76 80.667 152.332 118 228.999c58.667 -0.666992 112.334 -1 161.001 -1c31.333 0 81.333 0.333008 150 1c29.333 -69.333 64.666 -145.666 105.999 -228.999c-35.333 1.33301 -64 2 -86 2c-15.333 0 -43 -0.666992 -83 -2l-91 131l-100 -131
c-26.667 1.33301 -54.667 2 -84 2c-34 0 -64.333 -0.666992 -91 -2z" />
    <glyph glyph-name="Edieresis" unicode="&#xcb;" horiz-adv-x="1251" 
d="M117 0l28.998 383.001l21 443l13 403v136c164.667 -1.33301 336.334 -2 515.001 -2l192 1l289 1l-12 -216l-95 5c-26 1.33301 -62 2.33301 -108 3s-93 1 -141 1c-104 0 -171.167 -0.166992 -201.5 -0.5s-76.166 -1.5 -137.499 -3.5l-16 -355c91.333 -2 183.333 -3 276 -3
c64 0 172 2 324 6c-5.33301 -60.667 -10 -133.334 -14 -218.001c-178 2 -280 3 -306 3c-78.667 0 -176.667 -2 -294 -6l-16 -374l110 -1c32 0 105.333 0.666992 220 2l217 4l145 7c-6.66699 -77.333 -11.334 -150.333 -14.001 -219c-173.333 1.33301 -329.666 2 -468.999 2
l-329 -1zM746.998 1538l9.00098 162c44 -1.33301 78.667 -2 104 -2s58.666 0.666992 99.999 2l-6 -162c-40 1.33301 -73 2 -99 2c-22.667 0 -58.667 -0.666992 -108 -2zM408.999 1538l8.00098 162c44.667 -1.33301 79.667 -2 105 -2s58.666 0.666992 99.999 2
c-1.33301 -14 -3.33301 -68 -6 -162c-40 1.33301 -73 2 -99 2c-22.667 0 -58.667 -0.666992 -108 -2z" />
    <glyph glyph-name="Igrave" unicode="&#xcc;" horiz-adv-x="602" 
d="M106 0c16 229.333 28.999 464.5 38.999 705.5s15 425.167 15 552.5l-1 107l167 -2c9.33301 0 60.333 0.666992 153 2c-27.333 -350.667 -44.666 -805.667 -51.999 -1365l-147 2c-24.667 0 -82.667 -0.666992 -174 -2zM452.999 1493c-38.667 1.33301 -73.002 2 -103.002 2
c-39.333 0 -75.666 -0.666992 -108.999 -2l-75 109c-23.333 34 -55.666 78.667 -96.999 134c64 -1.33301 114.333 -2 151 -2c46 0 95.333 0.666992 148 2l26 -75l28 -80z" />
    <glyph glyph-name="Iacute" unicode="&#xcd;" horiz-adv-x="602" 
d="M120 0c16 229.333 28.999 464.5 38.999 705.5s15 425.167 15 552.5l-1 107l167 -2c9.33301 0 60.333 0.666992 153 2c-27.333 -350.667 -44.666 -805.667 -51.999 -1365l-147 2c-24.667 0 -82.667 -0.666992 -174 -2zM226.999 1493l37 91.999l27 72l31 79
c54 -1.33301 103.667 -2 149 -2c37.333 0 87.333 0.666992 150 2c-44.667 -55.333 -78 -98.666 -100 -129.999l-83 -113c-35.333 1.33301 -71.333 2 -108 2c-32.667 0 -67 -0.666992 -103 -2z" />
    <glyph glyph-name="Icircumflex" unicode="&#xce;" horiz-adv-x="602" 
d="M123 0c16 229.333 28.999 464.5 38.999 705.5s15 425.167 15 552.5l-1 107l167 -2c9.33301 0 60.333 0.666992 153 2c-27.333 -350.667 -44.666 -805.667 -51.999 -1365l-147 2c-24.667 0 -82.667 -0.666992 -174 -2zM77.999 1503c41.333 76 80.667 152.332 118 228.999
c58.667 -0.666992 112.334 -1 161.001 -1c31.333 0 81.333 0.333008 150 1c29.333 -69.333 64.666 -145.666 105.999 -228.999c-35.333 1.33301 -64 2 -86 2c-15.333 0 -43 -0.666992 -83 -2l-91 131l-100 -131c-26.667 1.33301 -54.667 2 -84 2
c-34 0 -64.333 -0.666992 -91 -2z" />
    <glyph glyph-name="Idieresis" unicode="&#xcf;" horiz-adv-x="602" 
d="M142 0c16 229.333 28.999 464.5 38.999 705.5s15 425.167 15 552.5l-1 107l167 -2c9.33301 0 60.333 0.666992 153 2c-27.333 -350.667 -44.666 -805.667 -51.999 -1365l-147 2c-24.667 0 -82.667 -0.666992 -174 -2zM434.999 1538l9.00098 162
c44 -1.33301 78.667 -2 104 -2s58.666 0.666992 99.999 2l-6 -162c-40 1.33301 -73 2 -99 2c-22.667 0 -58.667 -0.666992 -108 -2zM97 1538l8.00098 162c44.667 -1.33301 79.667 -2 105 -2s58.666 0.666992 99.999 2c-1.33301 -14 -3.33301 -68 -6 -162
c-40 1.33301 -73 2 -99 2c-22.667 0 -58.667 -0.666992 -108 -2z" />
    <glyph glyph-name="Eth" unicode="&#xd0;" horiz-adv-x="1546" 
d="M18 605c8 68 12.999 129.001 14.999 183.001c4 -0.666992 48 -1.66699 132 -3l11 317c2.66699 68 4 122.667 4 164l-1 99c74 -1.33301 143.667 -2 209 -2c58 0 120.833 1 188.5 3s136.834 3 207.501 3c77.333 0 149.666 -4.5 216.999 -13.5s126.333 -26 177 -51
s94.334 -57 131.001 -96s67 -81.833 91 -128.5s42.167 -99.167 54.5 -157.5s18.5 -117.833 18.5 -178.5c0 -114.667 -19.833 -223.834 -59.5 -327.501s-98.667 -189.334 -177 -257.001s-165.333 -111.167 -261 -130.5s-204.5 -29 -326.5 -29l-340 2
c-20.667 0 -84 -0.666992 -190 -2c20.667 236.667 33.667 439.334 39 608.001zM450.999 784.001c108 0 208.996 1.33105 302.996 3.99805c-6 -58 -10.333 -119 -13 -183c-91.333 2.66699 -190.666 4 -297.999 4l-17 -396c57.333 -2.66699 113 -4 167 -4
c58.667 0 113.834 3 165.501 9s96.167 15.833 133.5 29.5s74.833 36.834 112.5 69.501s68.334 70.667 92.001 114s41.667 91.833 54 145.5s18.5 107.834 18.5 162.501c0 62.667 -8 120.5 -24 173.5s-42.667 100.5 -80 142.5s-83 70.167 -137 84.5s-121.333 21.5 -202 21.5
c-75.333 0 -161.666 -1.33301 -258.999 -4z" />
    <glyph glyph-name="Ntilde" unicode="&#xd1;" horiz-adv-x="1611" 
d="M118 0c12.667 119.333 22.333 253.332 29 401.999l23 490c8 177.333 12 335 12 473c77.333 -1.33301 143 -2 197 -2c40 0 98.333 0.666992 175 2c75.333 -131.333 179.333 -302.666 312 -513.999l321 -525l37 928c0.666992 22 1 59 1 111c62.667 -1.33301 110 -2 142 -2
c12.667 0 59.334 0.666992 140.001 2l-25 -367l-31 -628l-12 -370c-69.333 1.33301 -128.333 2 -177 2c-38.667 0 -101.334 -0.666992 -188.001 -2l-76 132l-175 272l-220 348l-166 272c-5.33301 -108 -13.666 -308.333 -24.999 -601
c-4.66699 -119.333 -8.33398 -260.333 -11.001 -423c-62.667 1.33301 -108 2 -136 2c-22 0 -71 -0.666992 -147 -2zM576.999 1516c0.666992 52 6.49512 95.335 17.4951 130.002s26.5 59.167 46.5 73.5s42.667 21.5 68 21.5c8.66699 0 17.667 -0.833008 27 -2.5
s18.666 -4.33398 27.999 -8.00098s17.5 -7.5 24.5 -11.5s20.5 -12.333 40.5 -25l52 -33c12 -7.33301 23.333 -13.666 34 -18.999s21.667 -8 33 -8c8.66699 0 16.5 1.66699 23.5 5s12.833 8.83301 17.5 16.5s7.83398 16.167 9.50098 25.5s3.5 23 5.5 41
c28 -1.33301 49 -2 63 -2s35.667 0.666992 65 2c0 -45.333 -4.5 -83.666 -13.5 -114.999s-23.5 -57.5 -43.5 -78.5s-47 -31.5 -81 -31.5c-12.667 0 -25.167 1.66699 -37.5 5s-25.166 8.66602 -38.499 15.999s-36.666 21.666 -69.999 42.999s-55.333 34.333 -66 39
s-21 7 -31 7c-11.333 0 -21.166 -3.66699 -29.499 -11s-13.666 -16.333 -15.999 -27s-4.16602 -28.334 -5.49902 -53.001c-26 1.33301 -47 2 -63 2s-36 -0.666992 -60 -2z" />
    <glyph glyph-name="Ograve" unicode="&#xd2;" horiz-adv-x="1709" 
d="M894 1389c99.333 0 194.666 -13.6641 285.999 -40.9971s172.333 -71.833 243 -133.5s124 -133.5 160 -215.5s54 -177.667 54 -287c0 -102.667 -17 -200.834 -51 -294.501s-86.667 -174.334 -158 -242.001s-158.166 -117.834 -260.499 -150.501s-209.833 -49 -322.5 -49
c-106.667 0 -209.167 15 -307.5 45s-183 77 -254 141s-121.833 137.5 -152.5 220.5s-46 172.833 -46 269.5c0 106 19.167 207.333 57.5 304s94.666 176.667 168.999 240s161.333 111.333 261 144s206.834 49 321.501 49zM878 1176
c-100.667 0 -188.331 -23.1689 -262.998 -69.502s-130.834 -109.666 -168.501 -189.999s-56.5 -167.166 -56.5 -260.499c0 -86.667 18.167 -166.5 54.5 -239.5s92.166 -128.667 167.499 -167s156.666 -57.5 243.999 -57.5c66 0 129 11.333 189 34
s111.833 57.167 155.5 103.5s76.5 102.166 98.5 167.499s33 133.333 33 204c0 66 -9.83301 129.333 -29.5 190s-50.167 112.834 -91.5 156.501s-91.166 76 -149.499 97s-119.5 31.5 -183.5 31.5zM1009 1492c-38.667 1.33301 -73.002 2 -103.002 2
c-39.333 0 -75.666 -0.666992 -108.999 -2l-75 109c-23.333 34 -55.666 78.667 -96.999 134c64 -1.33301 114.333 -2 151 -2c46 0 95.333 0.666992 148 2l26 -75l28 -80z" />
    <glyph glyph-name="Oacute" unicode="&#xd3;" horiz-adv-x="1709" 
d="M894 1389c99.333 0 194.666 -13.6641 285.999 -40.9971s172.333 -71.833 243 -133.5s124 -133.5 160 -215.5s54 -177.667 54 -287c0 -102.667 -17 -200.834 -51 -294.501s-86.667 -174.334 -158 -242.001s-158.166 -117.834 -260.499 -150.501s-209.833 -49 -322.5 -49
c-106.667 0 -209.167 15 -307.5 45s-183 77 -254 141s-121.833 137.5 -152.5 220.5s-46 172.833 -46 269.5c0 106 19.167 207.333 57.5 304s94.666 176.667 168.999 240s161.333 111.333 261 144s206.834 49 321.501 49zM878 1176
c-100.667 0 -188.331 -23.1689 -262.998 -69.502s-130.834 -109.666 -168.501 -189.999s-56.5 -167.166 -56.5 -260.499c0 -86.667 18.167 -166.5 54.5 -239.5s92.166 -128.667 167.499 -167s156.666 -57.5 243.999 -57.5c66 0 129 11.333 189 34
s111.833 57.167 155.5 103.5s76.5 102.166 98.5 167.499s33 133.333 33 204c0 66 -9.83301 129.333 -29.5 190s-50.167 112.834 -91.5 156.501s-91.166 76 -149.499 97s-119.5 31.5 -183.5 31.5zM779.003 1492l37 91.999l27 72l31 79c54 -1.33301 103.667 -2 149 -2
c37.333 0 87.333 0.666992 150 2c-44.667 -55.333 -78 -98.666 -100 -129.999l-83 -113c-35.333 1.33301 -71.333 2 -108 2c-32.667 0 -67 -0.666992 -103 -2z" />
    <glyph glyph-name="Ocircumflex" unicode="&#xd4;" horiz-adv-x="1709" 
d="M894 1389c99.333 0 194.666 -13.6641 285.999 -40.9971s172.333 -71.833 243 -133.5s124 -133.5 160 -215.5s54 -177.667 54 -287c0 -102.667 -17 -200.834 -51 -294.501s-86.667 -174.334 -158 -242.001s-158.166 -117.834 -260.499 -150.501s-209.833 -49 -322.5 -49
c-106.667 0 -209.167 15 -307.5 45s-183 77 -254 141s-121.833 137.5 -152.5 220.5s-46 172.833 -46 269.5c0 106 19.167 207.333 57.5 304s94.666 176.667 168.999 240s161.333 111.333 261 144s206.834 49 321.501 49zM878 1176
c-100.667 0 -188.331 -23.1689 -262.998 -69.502s-130.834 -109.666 -168.501 -189.999s-56.5 -167.166 -56.5 -260.499c0 -86.667 18.167 -166.5 54.5 -239.5s92.166 -128.667 167.499 -167s156.666 -57.5 243.999 -57.5c66 0 129 11.333 189 34
s111.833 57.167 155.5 103.5s76.5 102.166 98.5 167.499s33 133.333 33 204c0 66 -9.83301 129.333 -29.5 190s-50.167 112.834 -91.5 156.501s-91.166 76 -149.499 97s-119.5 31.5 -183.5 31.5zM629.003 1503c41.333 76 80.667 152.332 118 228.999
c58.667 -0.666992 112.334 -1 161.001 -1c31.333 0 81.333 0.333008 150 1c29.333 -69.333 64.666 -145.666 105.999 -228.999c-35.333 1.33301 -64 2 -86 2c-15.333 0 -43 -0.666992 -83 -2l-91 131l-100 -131c-26.667 1.33301 -54.667 2 -84 2
c-34 0 -64.333 -0.666992 -91 -2z" />
    <glyph glyph-name="Otilde" unicode="&#xd5;" horiz-adv-x="1709" 
d="M894 1389c99.333 0 194.666 -13.6641 285.999 -40.9971s172.333 -71.833 243 -133.5s124 -133.5 160 -215.5s54 -177.667 54 -287c0 -102.667 -17 -200.834 -51 -294.501s-86.667 -174.334 -158 -242.001s-158.166 -117.834 -260.499 -150.501s-209.833 -49 -322.5 -49
c-106.667 0 -209.167 15 -307.5 45s-183 77 -254 141s-121.833 137.5 -152.5 220.5s-46 172.833 -46 269.5c0 106 19.167 207.333 57.5 304s94.666 176.667 168.999 240s161.333 111.333 261 144s206.834 49 321.501 49zM878 1176
c-100.667 0 -188.331 -23.1689 -262.998 -69.502s-130.834 -109.666 -168.501 -189.999s-56.5 -167.166 -56.5 -260.499c0 -86.667 18.167 -166.5 54.5 -239.5s92.166 -128.667 167.499 -167s156.666 -57.5 243.999 -57.5c66 0 129 11.333 189 34
s111.833 57.167 155.5 103.5s76.5 102.166 98.5 167.499s33 133.333 33 204c0 66 -9.83301 129.333 -29.5 190s-50.167 112.834 -91.5 156.501s-91.166 76 -149.499 97s-119.5 31.5 -183.5 31.5zM623.003 1516c0.666992 52 6.49512 95.335 17.4951 130.002
s26.5 59.167 46.5 73.5s42.667 21.5 68 21.5c8.66699 0 17.667 -0.833008 27 -2.5s18.666 -4.33398 27.999 -8.00098s17.5 -7.5 24.5 -11.5s20.5 -12.333 40.5 -25l52 -33c12 -7.33301 23.333 -13.666 34 -18.999s21.667 -8 33 -8c8.66699 0 16.5 1.66699 23.5 5
s12.833 8.83301 17.5 16.5s7.83398 16.167 9.50098 25.5s3.5 23 5.5 41c28 -1.33301 49 -2 63 -2s35.667 0.666992 65 2c0 -45.333 -4.5 -83.666 -13.5 -114.999s-23.5 -57.5 -43.5 -78.5s-47 -31.5 -81 -31.5c-12.667 0 -25.167 1.66699 -37.5 5
s-25.166 8.66602 -38.499 15.999s-36.666 21.666 -69.999 42.999s-55.333 34.333 -66 39s-21 7 -31 7c-11.333 0 -21.166 -3.66699 -29.499 -11s-13.666 -16.333 -15.999 -27s-4.16602 -28.334 -5.49902 -53.001c-26 1.33301 -47 2 -63 2s-36 -0.666992 -60 -2z" />
    <glyph glyph-name="Odieresis" unicode="&#xd6;" horiz-adv-x="1709" 
d="M894 1389c99.333 0 194.666 -13.6641 285.999 -40.9971s172.333 -71.833 243 -133.5s124 -133.5 160 -215.5s54 -177.667 54 -287c0 -102.667 -17 -200.834 -51 -294.501s-86.667 -174.334 -158 -242.001s-158.166 -117.834 -260.499 -150.501s-209.833 -49 -322.5 -49
c-106.667 0 -209.167 15 -307.5 45s-183 77 -254 141s-121.833 137.5 -152.5 220.5s-46 172.833 -46 269.5c0 106 19.167 207.333 57.5 304s94.666 176.667 168.999 240s161.333 111.333 261 144s206.834 49 321.501 49zM878 1176
c-100.667 0 -188.331 -23.1689 -262.998 -69.502s-130.834 -109.666 -168.501 -189.999s-56.5 -167.166 -56.5 -260.499c0 -86.667 18.167 -166.5 54.5 -239.5s92.166 -128.667 167.499 -167s156.666 -57.5 243.999 -57.5c66 0 129 11.333 189 34
s111.833 57.167 155.5 103.5s76.5 102.166 98.5 167.499s33 133.333 33 204c0 66 -9.83301 129.333 -29.5 190s-50.167 112.834 -91.5 156.501s-91.166 76 -149.499 97s-119.5 31.5 -183.5 31.5zM966.003 1538l9.00098 162c44 -1.33301 78.667 -2 104 -2
s58.666 0.666992 99.999 2l-6 -162c-40 1.33301 -73 2 -99 2c-22.667 0 -58.667 -0.666992 -108 -2zM628.004 1538l8.00098 162c44.667 -1.33301 79.667 -2 105 -2s58.666 0.666992 99.999 2c-1.33301 -14 -3.33301 -68 -6 -162c-40 1.33301 -73 2 -99 2
c-22.667 0 -58.667 -0.666992 -108 -2z" />
    <glyph glyph-name="multiply" unicode="&#xd7;" 
d="M307 268c-28 32.667 -68.667 76.001 -122 130.001l325 305l-299 307c38 32 83.333 74.333 136 127l292 -311l321 312c26.667 -32 67 -75 121 -129l-324 -306l298 -306c-36 -30.667 -81.333 -73.334 -136 -128.001l-292 311z" />
    <glyph glyph-name="Oslash" unicode="&#xd8;" horiz-adv-x="1694" 
d="M1157 1338l107.999 168.002c48 -1.33301 90.667 -2 128 -2c39.333 0 82 0.666992 128 2l-163 -246c59.333 -41.333 108.833 -90.333 148.5 -147s68.667 -119.834 87 -189.501s27.5 -140.834 27.5 -213.501c0 -102.667 -16.833 -200.667 -50.5 -294
s-84.834 -173.333 -153.501 -240s-152.834 -116.667 -252.501 -150s-204.167 -50 -313.5 -50c-19.333 0 -38.833 0.666992 -58.5 2s-36.667 3 -51 5s-27.166 4.16699 -38.499 6.5s-29 6.83301 -53 13.5l-110 29l-104 -165c-48.667 1.33301 -90 2 -124 2
c-35.333 0 -76.666 -0.666992 -123.999 -2l157 241c-91.333 62 -157.5 142.167 -198.5 240.5s-61.5 202.5 -61.5 312.5c0 135.333 32.167 261.5 96.5 378.5s158.166 204.667 281.499 263s252.333 87.5 387 87.5c26.667 0 53.334 -1.33301 80.001 -4
s49.834 -5.66699 69.501 -9s45 -9.33301 76 -18s58.167 -15.667 81.5 -21zM1037 1156c-53.333 17.333 -108 26.0039 -164 26.0039c-69.333 0 -134.833 -11.333 -196.5 -34s-115.667 -58.334 -162 -107.001s-81.333 -106.834 -105 -174.501s-35.5 -138.167 -35.5 -211.5
c0 -60.667 9.66699 -120.334 29 -179.001s48 -108.334 86 -149.001zM1213 1043.01l-551 -826c59.333 -20.667 121 -31 185 -31c66.667 0 130.667 11.667 192 35s114 58.833 158 106.5s76.833 104.5 98.5 170.5s32.5 135 32.5 207c0 64 -9.66699 125.833 -29 185.5
s-48 110.5 -86 152.5z" />
    <glyph glyph-name="Ugrave" unicode="&#xd9;" horiz-adv-x="1538" 
d="M173 1365c77.333 -1.33301 129.666 -1.99707 156.999 -1.99707c34 0 84.667 0.666992 152 2l-47 -807c-0.666992 -9.33301 -1 -19.333 -1 -30c0 -90 12.833 -157.667 38.5 -203s63.334 -78.333 113.001 -99s106.5 -31 170.5 -31c40.667 0 79.334 4.66699 116.001 14
c30 8 57.333 19 82 33c20 12 37.667 26 53 42c18 19.333 33 41.666 45 66.999c12.667 24.667 22 52.667 28 84c8.66699 47.333 16.667 129.666 24 246.999l21 348c4.66699 101.333 8.33398 213 11.001 335c75.333 -1.33301 131.333 -2 168 -2l146 2l-31 -482l-20 -383
c-6 -89.333 -15.333 -156 -28 -200c-10.667 -36.667 -25.667 -70.667 -45 -102c-18.667 -28 -41 -53 -67 -75c-33.333 -28.667 -72.333 -53.334 -117 -74.001c-50 -23.333 -103 -40.333 -159 -51c-77.333 -14.667 -157 -22 -239 -22c-84 0 -162.667 7.66699 -236 23
c-62.667 13.333 -120.167 34 -172.5 62s-93.833 59.333 -124.5 94c-24.667 28 -44.334 63 -59.001 105c-16.667 46.667 -25 98.667 -25 156c0 20 0.666992 45.833 2 77.5s3.66602 72.5 6.99902 122.5l9 141c3.33301 44 7 108.667 11 194l10 217c2.66699 59.333 5 125 7 197z
M927 1492c-38.667 1.33301 -73.002 2 -103.002 2c-39.333 0 -75.666 -0.666992 -108.999 -2l-75 109c-23.333 34 -55.666 78.667 -96.999 134c64 -1.33301 114.333 -2 151 -2c46 0 95.333 0.666992 148 2l26 -75l28 -80z" />
    <glyph glyph-name="Uacute" unicode="&#xda;" horiz-adv-x="1538" 
d="M173 1365c77.333 -1.33301 129.666 -1.99707 156.999 -1.99707c34 0 84.667 0.666992 152 2l-47 -807c-0.666992 -9.33301 -1 -19.333 -1 -30c0 -90 12.833 -157.667 38.5 -203s63.334 -78.333 113.001 -99s106.5 -31 170.5 -31c40.667 0 79.334 4.66699 116.001 14
c30 8 57.333 19 82 33c20 12 37.667 26 53 42c18 19.333 33 41.666 45 66.999c12.667 24.667 22 52.667 28 84c8.66699 47.333 16.667 129.666 24 246.999l21 348c4.66699 101.333 8.33398 213 11.001 335c75.333 -1.33301 131.333 -2 168 -2l146 2l-31 -482l-20 -383
c-6 -89.333 -15.333 -156 -28 -200c-10.667 -36.667 -25.667 -70.667 -45 -102c-18.667 -28 -41 -53 -67 -75c-33.333 -28.667 -72.333 -53.334 -117 -74.001c-50 -23.333 -103 -40.333 -159 -51c-77.333 -14.667 -157 -22 -239 -22c-84 0 -162.667 7.66699 -236 23
c-62.667 13.333 -120.167 34 -172.5 62s-93.833 59.333 -124.5 94c-24.667 28 -44.334 63 -59.001 105c-16.667 46.667 -25 98.667 -25 156c0 20 0.666992 45.833 2 77.5s3.66602 72.5 6.99902 122.5l9 141c3.33301 44 7 108.667 11 194l10 217c2.66699 59.333 5 125 7 197z
M697 1492l37 91.999l27 72l31 79c54 -1.33301 103.667 -2 149 -2c37.333 0 87.333 0.666992 150 2c-44.667 -55.333 -78 -98.666 -100 -129.999l-83 -113c-35.333 1.33301 -71.333 2 -108 2c-32.667 0 -67 -0.666992 -103 -2z" />
    <glyph glyph-name="Ucircumflex" unicode="&#xdb;" horiz-adv-x="1538" 
d="M173 1365c77.333 -1.33301 129.666 -1.99707 156.999 -1.99707c34 0 84.667 0.666992 152 2l-47 -807c-0.666992 -9.33301 -1 -19.333 -1 -30c0 -90 12.833 -157.667 38.5 -203s63.334 -78.333 113.001 -99s106.5 -31 170.5 -31c40.667 0 79.334 4.66699 116.001 14
c30 8 57.333 19 82 33c20 12 37.667 26 53 42c18 19.333 33 41.666 45 66.999c12.667 24.667 22 52.667 28 84c8.66699 47.333 16.667 129.666 24 246.999l21 348c4.66699 101.333 8.33398 213 11.001 335c75.333 -1.33301 131.333 -2 168 -2l146 2l-31 -482l-20 -383
c-6 -89.333 -15.333 -156 -28 -200c-10.667 -36.667 -25.667 -70.667 -45 -102c-18.667 -28 -41 -53 -67 -75c-33.333 -28.667 -72.333 -53.334 -117 -74.001c-50 -23.333 -103 -40.333 -159 -51c-77.333 -14.667 -157 -22 -239 -22c-84 0 -162.667 7.66699 -236 23
c-62.667 13.333 -120.167 34 -172.5 62s-93.833 59.333 -124.5 94c-24.667 28 -44.334 63 -59.001 105c-16.667 46.667 -25 98.667 -25 156c0 20 0.666992 45.833 2 77.5s3.66602 72.5 6.99902 122.5l9 141c3.33301 44 7 108.667 11 194l10 217c2.66699 59.333 5 125 7 197z
M548 1503c41.333 76 80.667 152.332 118 228.999c58.667 -0.666992 112.334 -1 161.001 -1c31.333 0 81.333 0.333008 150 1c29.333 -69.333 64.666 -145.666 105.999 -228.999c-35.333 1.33301 -64 2 -86 2c-15.333 0 -43 -0.666992 -83 -2l-91 131l-100 -131
c-26.667 1.33301 -54.667 2 -84 2c-34 0 -64.333 -0.666992 -91 -2z" />
    <glyph glyph-name="Udieresis" unicode="&#xdc;" horiz-adv-x="1538" 
d="M173 1365c77.333 -1.33301 129.666 -1.99707 156.999 -1.99707c34 0 84.667 0.666992 152 2l-47 -807c-0.666992 -9.33301 -1 -19.333 -1 -30c0 -90 12.833 -157.667 38.5 -203s63.334 -78.333 113.001 -99s106.5 -31 170.5 -31c40.667 0 79.334 4.66699 116.001 14
c30 8 57.333 19 82 33c20 12 37.667 26 53 42c18 19.333 33 41.666 45 66.999c12.667 24.667 22 52.667 28 84c8.66699 47.333 16.667 129.666 24 246.999l21 348c4.66699 101.333 8.33398 213 11.001 335c75.333 -1.33301 131.333 -2 168 -2l146 2l-31 -482l-20 -383
c-6 -89.333 -15.333 -156 -28 -200c-10.667 -36.667 -25.667 -70.667 -45 -102c-18.667 -28 -41 -53 -67 -75c-33.333 -28.667 -72.333 -53.334 -117 -74.001c-50 -23.333 -103 -40.333 -159 -51c-77.333 -14.667 -157 -22 -239 -22c-84 0 -162.667 7.66699 -236 23
c-62.667 13.333 -120.167 34 -172.5 62s-93.833 59.333 -124.5 94c-24.667 28 -44.334 63 -59.001 105c-16.667 46.667 -25 98.667 -25 156c0 20 0.666992 45.833 2 77.5s3.66602 72.5 6.99902 122.5l9 141c3.33301 44 7 108.667 11 194l10 217c2.66699 59.333 5 125 7 197z
M892 1538l9.00098 162c44 -1.33301 78.667 -2 104 -2s58.666 0.666992 99.999 2l-6 -162c-40 1.33301 -73 2 -99 2c-22.667 0 -58.667 -0.666992 -108 -2zM554.001 1538l8.00098 162c44.667 -1.33301 79.667 -2 105 -2s58.666 0.666992 99.999 2
c-1.33301 -14 -3.33301 -68 -6 -162c-40 1.33301 -73 2 -99 2c-22.667 0 -58.667 -0.666992 -108 -2z" />
    <glyph glyph-name="Yacute" unicode="&#xdd;" horiz-adv-x="1201" 
d="M395 0c8 74 16.168 170.666 24.501 289.999s13.166 214.333 14.499 285l-448 790c75.333 -1.33301 134 -2 176 -2c40 0 93.333 0.666992 160 2c30 -69.333 73.667 -157.166 131 -263.499s106.666 -203.833 147.999 -292.5l297 480l44 76c64.667 -1.33301 122 -2 172 -2
c26 0 79.667 0.666992 161 2l-546 -811l-12 -253c-4 -74.667 -7 -175 -9 -301c-71.333 1.33301 -123.333 2 -156 2c-33.333 0 -85.666 -0.666992 -156.999 -2zM525.001 1492l37 91.999l27 72l31 79c54 -1.33301 103.667 -2 149 -2c37.333 0 87.333 0.666992 150 2
c-44.667 -55.333 -78 -98.666 -100 -129.999l-83 -113c-35.333 1.33301 -71.333 2 -108 2c-32.667 0 -67 -0.666992 -103 -2z" />
    <glyph glyph-name="Thorn" unicode="&#xde;" horiz-adv-x="1206" 
d="M120 0l21.002 293.999l24 504l10 352c0.666992 34 1 68 1 102c0 24 -0.333008 61.667 -1 113c56.667 -1.33301 104.667 -2 144 -2c40.667 0 88.334 0.666992 143.001 2c-6 -69.333 -9.66699 -133 -11 -191c37.333 1.33301 86.333 2 147 2l157 2
c65.333 0 122 -5.33301 170 -16s91.167 -32.334 129.5 -65.001s67.666 -73 87.999 -121s30.5 -101 30.5 -159c0 -86 -21.5 -164.167 -64.5 -234.5s-102.5 -122.833 -178.5 -157.5s-160.667 -52 -254 -52c-44.667 0 -92.667 4.66699 -144 14
c-14.667 68.667 -31.334 133.334 -50.001 194.001c40.667 -8 81.667 -12 123 -12c54.667 0 102.5 8.33301 143.5 25s73.5 43.834 97.5 81.501s36 79.834 36 126.501c0 28.667 -5.16699 54.667 -15.5 78s-24.833 42 -43.5 56s-39.334 23.5 -62.001 28.5s-54 7.5 -94 7.5
l-71 -1l-71 -1l-33 -1l-51 -2l-6 -110c-1.33301 -22 -3.33301 -79.667 -6 -173l-12 -499c-1.33301 -80.667 -2 -142.334 -2 -185.001l-145 2c-18.667 0 -68.667 -0.666992 -150 -2z" />
    <glyph glyph-name="germandbls" unicode="&#xdf;" horiz-adv-x="1247" 
d="M93 0l17.0059 179.995l33 554c6.66699 168.667 11.667 268.334 15 299.001c6 54.667 16.333 99.334 31 134.001c12.667 30 29.334 56 50.001 78c26.667 28 60.167 53.333 100.5 76s83.166 39 128.499 49c56 12.667 118.333 19 187 19
c56.667 0 110.834 -5.16699 162.501 -15.5s95.667 -28.5 132 -54.5s62 -56.5 77 -91.5s22.5 -74.5 22.5 -118.5c0 -29.333 -2.16699 -55.333 -6.5 -78s-8.83301 -39.167 -13.5 -49.5s-12.667 -21 -24 -32s-24 -21.333 -38 -31s-34.333 -21.667 -61 -36
s-44.834 -25.166 -54.501 -32.499s-16.667 -15 -21 -23s-6.5 -17.667 -6.5 -29c0 -24 7.83301 -44.667 23.5 -62s41.667 -37.5 78 -60.5s70.833 -47.5 103.5 -73.5s61 -54.333 85 -85s41.333 -62.334 52 -95.001s16 -69 16 -109c0 -70.667 -16.667 -132 -50 -184
s-79.333 -90.5 -138 -115.5s-122 -37.5 -190 -37.5c-27.333 0 -62.333 2.33301 -105 7s-87.334 12.667 -134.001 24c-2.66699 47.333 -8.66699 118.666 -18 213.999c76.667 -26 139.334 -39 188.001 -39c28 0 54.667 6.16699 80 18.5s46.666 30.333 63.999 54
s26 54.5 26 92.5c0 18 -2.16699 35 -6.5 51s-11 32.167 -20 48.5s-20.833 32.5 -35.5 48.5s-28.167 29.333 -40.5 40s-36.5 30.334 -72.5 59.001l-48 38c-6 4.66699 -14.167 12.5 -24.5 23.5s-19.333 23.667 -27 38s-12.834 29.833 -15.501 46.5s-4 33.334 -4 50.001
c0 20 2.16699 39.333 6.5 58s10.666 34.334 18.999 47.001s18.166 23 29.499 31s27.833 15.5 49.5 22.5s36.667 13 45 18s15.666 11.833 21.999 20.5s11.166 20.167 14.499 34.5s5 29.833 5 46.5c0 33.333 -6.66699 59.5 -20 78.5s-31.666 33.167 -54.999 42.5
s-50.333 14 -81 14c-29.333 0 -56.333 -3.66699 -81 -11c-17.333 -4.66699 -33 -11.667 -47 -21c-14 -10 -27 -22.333 -39 -37c-12 -15.333 -21 -31.333 -27 -48c-8.66699 -23.333 -14.667 -54.666 -18 -93.999c-6 -72.667 -12.667 -180.667 -20 -324l-18 -348
c-6 -122 -9.66699 -228.667 -11 -320c-54 1.33301 -102.667 2 -146 2c-38.667 0 -87.334 -0.666992 -146.001 -2z" />
    <glyph glyph-name="agrave" unicode="&#xe0;" horiz-adv-x="1161" 
d="M177 794c9.33301 48 15.1699 81.6719 17.5029 101.005s6.5 48.666 12.5 87.999c90.667 21.333 170.667 36.333 240 45s136.333 13 201 13c73.333 0 140.666 -8.5 201.999 -25.5s109.333 -44.167 144 -81.5s52 -91 52 -161c0 -38 -5.33301 -134.833 -16 -290.5
s-17 -316.5 -19 -482.5c-50.667 1.33301 -97.334 2 -140.001 2c-40.667 0 -88.334 -0.666992 -143.001 -2c8.66699 80.667 15.667 174 21 280l13 249c-25.333 -16.667 -44.666 -28.334 -57.999 -35.001s-28.333 -12.834 -45 -18.501s-46 -14.334 -88 -26.001
s-75.667 -21.834 -101 -30.501s-48.166 -18.5 -68.499 -29.5s-37.5 -23.333 -51.5 -37s-24.167 -28 -30.5 -43s-9.5 -31.167 -9.5 -48.5c0 -28 8.16699 -52.167 24.5 -72.5s36.833 -34.5 61.5 -42.5s53.667 -12 87 -12c21.333 0 43.833 1.66699 67.5 5
s55.5 11.666 95.5 24.999c-14 -38 -30.333 -94.667 -49 -170c-47.333 -8 -85 -13 -113 -15s-54 -3 -78 -3c-84 0 -153 11.333 -207 34s-93.833 58.667 -119.5 108s-38.5 99 -38.5 149c0 28.667 5 57 15 85s24.667 53.667 44 77s44.333 45.833 75 67.5s75 42.667 133 63
s134.667 40.833 230 61.5c25.333 5.33301 51.666 11.833 78.999 19.5s49.166 15.167 65.499 22.5s30.5 16.833 42.5 28.5s20.833 23.834 26.5 36.501s8.5 25.667 8.5 39c0 26 -8.5 48 -25.5 66s-39 30.5 -66 37.5s-56.833 10.5 -89.5 10.5c-121.333 0 -255.333 -29 -402 -87
zM751.004 1154c-38.667 1.33301 -73.002 2 -103.002 2c-39.333 0 -75.666 -0.666992 -108.999 -2l-75 109c-23.333 34 -55.666 78.667 -96.999 134c64 -1.33301 114.333 -2 151 -2c46 0 95.333 0.666992 148 2l26 -75l28 -80z" />
    <glyph glyph-name="aacute" unicode="&#xe1;" horiz-adv-x="1161" 
d="M177 794c9.33301 48 15.1699 81.6719 17.5029 101.005s6.5 48.666 12.5 87.999c90.667 21.333 170.667 36.333 240 45s136.333 13 201 13c73.333 0 140.666 -8.5 201.999 -25.5s109.333 -44.167 144 -81.5s52 -91 52 -161c0 -38 -5.33301 -134.833 -16 -290.5
s-17 -316.5 -19 -482.5c-50.667 1.33301 -97.334 2 -140.001 2c-40.667 0 -88.334 -0.666992 -143.001 -2c8.66699 80.667 15.667 174 21 280l13 249c-25.333 -16.667 -44.666 -28.334 -57.999 -35.001s-28.333 -12.834 -45 -18.501s-46 -14.334 -88 -26.001
s-75.667 -21.834 -101 -30.501s-48.166 -18.5 -68.499 -29.5s-37.5 -23.333 -51.5 -37s-24.167 -28 -30.5 -43s-9.5 -31.167 -9.5 -48.5c0 -28 8.16699 -52.167 24.5 -72.5s36.833 -34.5 61.5 -42.5s53.667 -12 87 -12c21.333 0 43.833 1.66699 67.5 5
s55.5 11.666 95.5 24.999c-14 -38 -30.333 -94.667 -49 -170c-47.333 -8 -85 -13 -113 -15s-54 -3 -78 -3c-84 0 -153 11.333 -207 34s-93.833 58.667 -119.5 108s-38.5 99 -38.5 149c0 28.667 5 57 15 85s24.667 53.667 44 77s44.333 45.833 75 67.5s75 42.667 133 63
s134.667 40.833 230 61.5c25.333 5.33301 51.666 11.833 78.999 19.5s49.166 15.167 65.499 22.5s30.5 16.833 42.5 28.5s20.833 23.834 26.5 36.501s8.5 25.667 8.5 39c0 26 -8.5 48 -25.5 66s-39 30.5 -66 37.5s-56.833 10.5 -89.5 10.5c-121.333 0 -255.333 -29 -402 -87
zM490.004 1154l37 91.999l27 72l31 79c54 -1.33301 103.667 -2 149 -2c37.333 0 87.333 0.666992 150 2c-44.667 -55.333 -78 -98.666 -100 -129.999l-83 -113c-35.333 1.33301 -71.333 2 -108 2c-32.667 0 -67 -0.666992 -103 -2z" />
    <glyph glyph-name="acircumflex" unicode="&#xe2;" horiz-adv-x="1161" 
d="M177 794c9.33301 48 15.1699 81.6719 17.5029 101.005s6.5 48.666 12.5 87.999c90.667 21.333 170.667 36.333 240 45s136.333 13 201 13c73.333 0 140.666 -8.5 201.999 -25.5s109.333 -44.167 144 -81.5s52 -91 52 -161c0 -38 -5.33301 -134.833 -16 -290.5
s-17 -316.5 -19 -482.5c-50.667 1.33301 -97.334 2 -140.001 2c-40.667 0 -88.334 -0.666992 -143.001 -2c8.66699 80.667 15.667 174 21 280l13 249c-25.333 -16.667 -44.666 -28.334 -57.999 -35.001s-28.333 -12.834 -45 -18.501s-46 -14.334 -88 -26.001
s-75.667 -21.834 -101 -30.501s-48.166 -18.5 -68.499 -29.5s-37.5 -23.333 -51.5 -37s-24.167 -28 -30.5 -43s-9.5 -31.167 -9.5 -48.5c0 -28 8.16699 -52.167 24.5 -72.5s36.833 -34.5 61.5 -42.5s53.667 -12 87 -12c21.333 0 43.833 1.66699 67.5 5
s55.5 11.666 95.5 24.999c-14 -38 -30.333 -94.667 -49 -170c-47.333 -8 -85 -13 -113 -15s-54 -3 -78 -3c-84 0 -153 11.333 -207 34s-93.833 58.667 -119.5 108s-38.5 99 -38.5 149c0 28.667 5 57 15 85s24.667 53.667 44 77s44.333 45.833 75 67.5s75 42.667 133 63
s134.667 40.833 230 61.5c25.333 5.33301 51.666 11.833 78.999 19.5s49.166 15.167 65.499 22.5s30.5 16.833 42.5 28.5s20.833 23.834 26.5 36.501s8.5 25.667 8.5 39c0 26 -8.5 48 -25.5 66s-39 30.5 -66 37.5s-56.833 10.5 -89.5 10.5c-121.333 0 -255.333 -29 -402 -87
zM356.004 1161c41.333 76 80.667 152.332 118 228.999c58.667 -0.666992 112.334 -1 161.001 -1c31.333 0 81.333 0.333008 150 1c29.333 -69.333 64.666 -145.666 105.999 -228.999c-35.333 1.33301 -64 2 -86 2c-15.333 0 -43 -0.666992 -83 -2l-91 131l-100 -131
c-26.667 1.33301 -54.667 2 -84 2c-34 0 -64.333 -0.666992 -91 -2z" />
    <glyph glyph-name="atilde" unicode="&#xe3;" horiz-adv-x="1161" 
d="M177 794c9.33301 48 15.1699 81.6719 17.5029 101.005s6.5 48.666 12.5 87.999c90.667 21.333 170.667 36.333 240 45s136.333 13 201 13c73.333 0 140.666 -8.5 201.999 -25.5s109.333 -44.167 144 -81.5s52 -91 52 -161c0 -38 -5.33301 -134.833 -16 -290.5
s-17 -316.5 -19 -482.5c-50.667 1.33301 -97.334 2 -140.001 2c-40.667 0 -88.334 -0.666992 -143.001 -2c8.66699 80.667 15.667 174 21 280l13 249c-25.333 -16.667 -44.666 -28.334 -57.999 -35.001s-28.333 -12.834 -45 -18.501s-46 -14.334 -88 -26.001
s-75.667 -21.834 -101 -30.501s-48.166 -18.5 -68.499 -29.5s-37.5 -23.333 -51.5 -37s-24.167 -28 -30.5 -43s-9.5 -31.167 -9.5 -48.5c0 -28 8.16699 -52.167 24.5 -72.5s36.833 -34.5 61.5 -42.5s53.667 -12 87 -12c21.333 0 43.833 1.66699 67.5 5
s55.5 11.666 95.5 24.999c-14 -38 -30.333 -94.667 -49 -170c-47.333 -8 -85 -13 -113 -15s-54 -3 -78 -3c-84 0 -153 11.333 -207 34s-93.833 58.667 -119.5 108s-38.5 99 -38.5 149c0 28.667 5 57 15 85s24.667 53.667 44 77s44.333 45.833 75 67.5s75 42.667 133 63
s134.667 40.833 230 61.5c25.333 5.33301 51.666 11.833 78.999 19.5s49.166 15.167 65.499 22.5s30.5 16.833 42.5 28.5s20.833 23.834 26.5 36.501s8.5 25.667 8.5 39c0 26 -8.5 48 -25.5 66s-39 30.5 -66 37.5s-56.833 10.5 -89.5 10.5c-121.333 0 -255.333 -29 -402 -87
zM351.004 1171c0.666992 52 6.49512 95.335 17.4951 130.002s26.5 59.167 46.5 73.5s42.667 21.5 68 21.5c8.66699 0 17.667 -0.833008 27 -2.5s18.666 -4.33398 27.999 -8.00098s17.5 -7.5 24.5 -11.5s20.5 -12.333 40.5 -25l52 -33c12 -7.33301 23.333 -13.666 34 -18.999
s21.667 -8 33 -8c8.66699 0 16.5 1.66699 23.5 5s12.833 8.83301 17.5 16.5s7.83398 16.167 9.50098 25.5s3.5 23 5.5 41c28 -1.33301 49 -2 63 -2s35.667 0.666992 65 2c0 -45.333 -4.5 -83.666 -13.5 -114.999s-23.5 -57.5 -43.5 -78.5s-47 -31.5 -81 -31.5
c-12.667 0 -25.167 1.66699 -37.5 5s-25.166 8.66602 -38.499 15.999s-36.666 21.666 -69.999 42.999s-55.333 34.333 -66 39s-21 7 -31 7c-11.333 0 -21.166 -3.66699 -29.499 -11s-13.666 -16.333 -15.999 -27s-4.16602 -28.334 -5.49902 -53.001c-26 1.33301 -47 2 -63 2
s-36 -0.666992 -60 -2z" />
    <glyph glyph-name="adieresis" unicode="&#xe4;" horiz-adv-x="1161" 
d="M177 794c9.33301 48 15.1699 81.6719 17.5029 101.005s6.5 48.666 12.5 87.999c90.667 21.333 170.667 36.333 240 45s136.333 13 201 13c73.333 0 140.666 -8.5 201.999 -25.5s109.333 -44.167 144 -81.5s52 -91 52 -161c0 -38 -5.33301 -134.833 -16 -290.5
s-17 -316.5 -19 -482.5c-50.667 1.33301 -97.334 2 -140.001 2c-40.667 0 -88.334 -0.666992 -143.001 -2c8.66699 80.667 15.667 174 21 280l13 249c-25.333 -16.667 -44.666 -28.334 -57.999 -35.001s-28.333 -12.834 -45 -18.501s-46 -14.334 -88 -26.001
s-75.667 -21.834 -101 -30.501s-48.166 -18.5 -68.499 -29.5s-37.5 -23.333 -51.5 -37s-24.167 -28 -30.5 -43s-9.5 -31.167 -9.5 -48.5c0 -28 8.16699 -52.167 24.5 -72.5s36.833 -34.5 61.5 -42.5s53.667 -12 87 -12c21.333 0 43.833 1.66699 67.5 5
s55.5 11.666 95.5 24.999c-14 -38 -30.333 -94.667 -49 -170c-47.333 -8 -85 -13 -113 -15s-54 -3 -78 -3c-84 0 -153 11.333 -207 34s-93.833 58.667 -119.5 108s-38.5 99 -38.5 149c0 28.667 5 57 15 85s24.667 53.667 44 77s44.333 45.833 75 67.5s75 42.667 133 63
s134.667 40.833 230 61.5c25.333 5.33301 51.666 11.833 78.999 19.5s49.166 15.167 65.499 22.5s30.5 16.833 42.5 28.5s20.833 23.834 26.5 36.501s8.5 25.667 8.5 39c0 26 -8.5 48 -25.5 66s-39 30.5 -66 37.5s-56.833 10.5 -89.5 10.5c-121.333 0 -255.333 -29 -402 -87
zM690.004 1196l9.00098 162c44 -1.33301 78.667 -2 104 -2s58.666 0.666992 99.999 2l-6 -162c-40 1.33301 -73 2 -99 2c-22.667 0 -58.667 -0.666992 -108 -2zM352.005 1196l8.00098 162c44.667 -1.33301 79.667 -2 105 -2s58.666 0.666992 99.999 2
c-1.33301 -14 -3.33301 -68 -6 -162c-40 1.33301 -73 2 -99 2c-22.667 0 -58.667 -0.666992 -108 -2z" />
    <glyph glyph-name="aring" unicode="&#xe5;" horiz-adv-x="1161" 
d="M177 794c9.33301 48 15.1699 81.6719 17.5029 101.005s6.5 48.666 12.5 87.999c90.667 21.333 170.667 36.333 240 45s136.333 13 201 13c73.333 0 140.666 -8.5 201.999 -25.5s109.333 -44.167 144 -81.5s52 -91 52 -161c0 -38 -5.33301 -134.833 -16 -290.5
s-17 -316.5 -19 -482.5c-50.667 1.33301 -97.334 2 -140.001 2c-40.667 0 -88.334 -0.666992 -143.001 -2c8.66699 80.667 15.667 174 21 280l13 249c-25.333 -16.667 -44.666 -28.334 -57.999 -35.001s-28.333 -12.834 -45 -18.501s-46 -14.334 -88 -26.001
s-75.667 -21.834 -101 -30.501s-48.166 -18.5 -68.499 -29.5s-37.5 -23.333 -51.5 -37s-24.167 -28 -30.5 -43s-9.5 -31.167 -9.5 -48.5c0 -28 8.16699 -52.167 24.5 -72.5s36.833 -34.5 61.5 -42.5s53.667 -12 87 -12c21.333 0 43.833 1.66699 67.5 5
s55.5 11.666 95.5 24.999c-14 -38 -30.333 -94.667 -49 -170c-47.333 -8 -85 -13 -113 -15s-54 -3 -78 -3c-84 0 -153 11.333 -207 34s-93.833 58.667 -119.5 108s-38.5 99 -38.5 149c0 28.667 5 57 15 85s24.667 53.667 44 77s44.333 45.833 75 67.5s75 42.667 133 63
s134.667 40.833 230 61.5c25.333 5.33301 51.666 11.833 78.999 19.5s49.166 15.167 65.499 22.5s30.5 16.833 42.5 28.5s20.833 23.834 26.5 36.501s8.5 25.667 8.5 39c0 26 -8.5 48 -25.5 66s-39 30.5 -66 37.5s-56.833 10.5 -89.5 10.5c-121.333 0 -255.333 -29 -402 -87
zM816.004 1335c0 -34 -8.5 -65.833 -25.5 -95.5s-40.5 -53.167 -70.5 -70.5s-62 -26 -96 -26s-66 8.66699 -96 26s-53.5 40.833 -70.5 70.5s-25.5 61.5 -25.5 95.5s8.5 65.833 25.5 95.5s40.5 53.167 70.5 70.5s62 26 96 26s66 -8.66699 96 -26s53.5 -40.833 70.5 -70.5
s25.5 -61.5 25.5 -95.5zM710.004 1333c0 24 -8.5 44.333 -25.5 61s-37.167 25 -60.5 25s-43.5 -8.33301 -60.5 -25s-25.5 -37 -25.5 -61s8.5 -44.5 25.5 -61.5s37.167 -25.5 60.5 -25.5s43.5 8.5 60.5 25.5s25.5 37.5 25.5 61.5z" />
    <glyph glyph-name="ae" unicode="&#xe6;" horiz-adv-x="1763" 
d="M178 796l16.9951 93.001c2.66699 17.333 7 49.333 13 96c54.667 14 99.834 24.333 135.501 31s77.667 12.5 126 17.5s91.5 7.5 129.5 7.5c51.333 0 97.5 -3.83301 138.5 -11.5s73.333 -17.667 97 -30s42.167 -25.5 55.5 -39.5s28 -35.667 44 -65
c28.667 28.667 53.167 50.834 73.5 66.501s43.666 29.5 69.999 41.5s55.833 21.333 88.5 28s66.334 10 101.001 10c78.667 0 153.167 -15.833 223.5 -47.5s124.833 -78.167 163.5 -139.5s58 -139.333 58 -234c0 -37.333 -3.33301 -73 -10 -107h-710
c-0.666992 -17.333 -1 -32.666 -1 -45.999c0 -40 4.66699 -75.333 14 -106c9.33301 -32 22.666 -60.667 39.999 -86c16.667 -23.333 36.834 -43.333 60.501 -60s50.834 -29.667 81.501 -39c36 -10 71.667 -15 107 -15c83.333 0 190.333 19.667 321 59
c-12 -62.667 -24.333 -133.334 -37 -212.001c-117.333 -21.333 -222.666 -32 -315.999 -32c-82 0 -156.833 12.167 -224.5 36.5s-123.334 62.166 -167.001 113.499s-77.5 110.666 -101.5 177.999s-36 124 -36 170c0 13.333 1.66699 34 5 62
c-21.333 -20 -37.166 -33.5 -47.499 -40.5s-24.166 -14 -41.499 -21s-37.333 -13.833 -60 -20.5c-75.333 -22.667 -132 -43.167 -170 -61.5s-64.833 -38.666 -80.5 -60.999s-23.5 -45.833 -23.5 -70.5c0 -23.333 7.16699 -44.833 21.5 -64.5s35.5 -34.667 63.5 -45
s58.667 -15.5 92 -15.5c22 0 49 3.16699 81 9.5s65.667 15.833 101 28.5c-14.667 -52.667 -29 -109.667 -43 -171c-38 -9.33301 -77.5 -16.166 -118.5 -20.499s-75.5 -6.5 -103.5 -6.5c-75.333 0 -141.333 11.833 -198 35.5s-99.667 57.334 -129 101.001s-44 92.5 -44 146.5
c0 30 4.83301 59.167 14.5 87.5s25.334 56.166 47.001 83.499s46 49.833 73 67.5s55.333 32.667 85 45s78.834 28.166 147.501 47.499l151 41c29.333 7.33301 59.166 16.333 89.499 27s54 25.667 71 45s25.5 42 25.5 68c0 33.333 -13.5 60.333 -40.5 81s-72.5 31 -136.5 31
c-46.667 0 -103.167 -6.83301 -169.5 -20.5s-138.833 -35.834 -217.5 -66.501zM1002 630.001l447.002 -0.00195312c0 36 -0.5 59.833 -1.5 71.5s-4.33301 26.5 -10 44.5s-14.5 35 -26.5 51s-26 29.5 -42 40.5s-34.833 19.667 -56.5 26s-45.167 9.5 -70.5 9.5
c-34.667 0 -66.5 -6.33301 -95.5 -19s-53.333 -29.667 -73 -51s-34.334 -44.166 -44.001 -68.499s-18.834 -59.166 -27.501 -104.499z" />
    <glyph glyph-name="ccedilla" unicode="&#xe7;" horiz-adv-x="1001" 
d="M897 231c-3.33301 -27.333 -8.33398 -58.3359 -15.001 -93.0029s-13.667 -77.667 -21 -129c-95.333 -22 -189.333 -33 -282 -33c-54 0 -106 5 -156 15s-96.5 27.833 -139.5 53.5s-80.833 59.5 -113.5 101.5s-57.167 92.833 -73.5 152.5s-24.5 121.167 -24.5 184.5
c0 84 13.5 164.667 40.5 242s66.5 140.5 118.5 189.5s109.833 82.333 173.5 100s134.5 26.5 212.5 26.5c43.333 0 88 -2.5 134 -7.5s100.333 -15.167 163 -30.5l15 -219c-99.333 34 -186 51 -260 51c-45.333 0 -88.166 -7.66699 -128.499 -23s-75 -39.5 -104 -72.5
s-49.667 -71.167 -62 -114.5s-18.5 -87.666 -18.5 -132.999c0 -63.333 9.83301 -118.166 29.5 -164.499s53.5 -82.166 101.5 -107.499s102.667 -38 164 -38c30 0 66.5 3.83301 109.5 11.5s88.5 20.167 136.5 37.5zM684.999 -90.0029l-129 -255
c-50 0.666992 -98.667 1 -146 1c-48 0 -99.333 -0.333008 -154 -1c64.667 76.667 133.667 163 207 259c28.667 -4.66699 69.334 -7 122.001 -7c31.333 0 64.666 1 99.999 3z" />
    <glyph glyph-name="egrave" unicode="&#xe8;" horiz-adv-x="1148" 
d="M1008 227c-8.66699 -39.333 -21 -109.999 -37 -211.999c-72 -15.333 -132.667 -25.666 -182 -30.999s-99 -8 -149 -8c-87.333 0 -165.5 8.66699 -234.5 26s-129.5 49.166 -181.5 95.499s-90.333 103.166 -115 170.499s-37 138 -37 212c0 82 14.333 161.5 43 238.5
s68.834 140 120.501 189s110.5 83.667 176.5 104s135 30.5 207 30.5c68 0 132.667 -8.5 194 -25.5s112.833 -44.833 154.5 -83.5s73.667 -85.167 96 -139.5s33.5 -114.833 33.5 -181.5c0 -31.333 -3.33301 -63.666 -10 -96.999l-733 -1
c-1.33301 -24.667 -2 -44.334 -2 -59.001c0 -44.667 7.66699 -85.667 23 -123s37.666 -69 66.999 -95s64.333 -45.167 105 -57.5s80.667 -18.5 120 -18.5c46 0 95.833 5 149.5 15s117.5 27 191.5 51zM362 631.001l468.002 -0.998047c0 32 -1 55.667 -3 71
s-6.5 32.833 -13.5 52.5s-16.5 37 -28.5 52s-26 27.5 -42 37.5s-34.5 17.667 -55.5 23s-43.5 8 -67.5 8c-28 0 -55.167 -4.33301 -81.5 -13s-50.5 -21.334 -72.5 -38.001s-39.833 -35.334 -53.5 -56.001s-23.834 -40.5 -30.501 -59.5s-13.334 -44.5 -20.001 -76.5z
M742.002 1154c-38.667 1.33301 -73.002 2 -103.002 2c-39.333 0 -75.666 -0.666992 -108.999 -2l-75 109c-23.333 34 -55.666 78.667 -96.999 134c64 -1.33301 114.333 -2 151 -2c46 0 95.333 0.666992 148 2l26 -75l28 -80z" />
    <glyph glyph-name="eacute" unicode="&#xe9;" horiz-adv-x="1148" 
d="M1008 227c-8.66699 -39.333 -21 -109.999 -37 -211.999c-72 -15.333 -132.667 -25.666 -182 -30.999s-99 -8 -149 -8c-87.333 0 -165.5 8.66699 -234.5 26s-129.5 49.166 -181.5 95.499s-90.333 103.166 -115 170.499s-37 138 -37 212c0 82 14.333 161.5 43 238.5
s68.834 140 120.501 189s110.5 83.667 176.5 104s135 30.5 207 30.5c68 0 132.667 -8.5 194 -25.5s112.833 -44.833 154.5 -83.5s73.667 -85.167 96 -139.5s33.5 -114.833 33.5 -181.5c0 -31.333 -3.33301 -63.666 -10 -96.999l-733 -1
c-1.33301 -24.667 -2 -44.334 -2 -59.001c0 -44.667 7.66699 -85.667 23 -123s37.666 -69 66.999 -95s64.333 -45.167 105 -57.5s80.667 -18.5 120 -18.5c46 0 95.833 5 149.5 15s117.5 27 191.5 51zM362 631.001l468.002 -0.998047c0 32 -1 55.667 -3 71
s-6.5 32.833 -13.5 52.5s-16.5 37 -28.5 52s-26 27.5 -42 37.5s-34.5 17.667 -55.5 23s-43.5 8 -67.5 8c-28 0 -55.167 -4.33301 -81.5 -13s-50.5 -21.334 -72.5 -38.001s-39.833 -35.334 -53.5 -56.001s-23.834 -40.5 -30.501 -59.5s-13.334 -44.5 -20.001 -76.5z
M484.002 1154l37 91.999l27 72l31 79c54 -1.33301 103.667 -2 149 -2c37.333 0 87.333 0.666992 150 2c-44.667 -55.333 -78 -98.666 -100 -129.999l-83 -113c-35.333 1.33301 -71.333 2 -108 2c-32.667 0 -67 -0.666992 -103 -2z" />
    <glyph glyph-name="ecircumflex" unicode="&#xea;" horiz-adv-x="1148" 
d="M1008 227c-8.66699 -39.333 -21 -109.999 -37 -211.999c-72 -15.333 -132.667 -25.666 -182 -30.999s-99 -8 -149 -8c-87.333 0 -165.5 8.66699 -234.5 26s-129.5 49.166 -181.5 95.499s-90.333 103.166 -115 170.499s-37 138 -37 212c0 82 14.333 161.5 43 238.5
s68.834 140 120.501 189s110.5 83.667 176.5 104s135 30.5 207 30.5c68 0 132.667 -8.5 194 -25.5s112.833 -44.833 154.5 -83.5s73.667 -85.167 96 -139.5s33.5 -114.833 33.5 -181.5c0 -31.333 -3.33301 -63.666 -10 -96.999l-733 -1
c-1.33301 -24.667 -2 -44.334 -2 -59.001c0 -44.667 7.66699 -85.667 23 -123s37.666 -69 66.999 -95s64.333 -45.167 105 -57.5s80.667 -18.5 120 -18.5c46 0 95.833 5 149.5 15s117.5 27 191.5 51zM362 631.001l468.002 -0.998047c0 32 -1 55.667 -3 71
s-6.5 32.833 -13.5 52.5s-16.5 37 -28.5 52s-26 27.5 -42 37.5s-34.5 17.667 -55.5 23s-43.5 8 -67.5 8c-28 0 -55.167 -4.33301 -81.5 -13s-50.5 -21.334 -72.5 -38.001s-39.833 -35.334 -53.5 -56.001s-23.834 -40.5 -30.501 -59.5s-13.334 -44.5 -20.001 -76.5z
M350.002 1161c41.333 76 80.667 152.332 118 228.999c58.667 -0.666992 112.334 -1 161.001 -1c31.333 0 81.333 0.333008 150 1c29.333 -69.333 64.666 -145.666 105.999 -228.999c-35.333 1.33301 -64 2 -86 2c-15.333 0 -43 -0.666992 -83 -2l-91 131l-100 -131
c-26.667 1.33301 -54.667 2 -84 2c-34 0 -64.333 -0.666992 -91 -2z" />
    <glyph glyph-name="edieresis" unicode="&#xeb;" horiz-adv-x="1148" 
d="M1008 227c-8.66699 -39.333 -21 -109.999 -37 -211.999c-72 -15.333 -132.667 -25.666 -182 -30.999s-99 -8 -149 -8c-87.333 0 -165.5 8.66699 -234.5 26s-129.5 49.166 -181.5 95.499s-90.333 103.166 -115 170.499s-37 138 -37 212c0 82 14.333 161.5 43 238.5
s68.834 140 120.501 189s110.5 83.667 176.5 104s135 30.5 207 30.5c68 0 132.667 -8.5 194 -25.5s112.833 -44.833 154.5 -83.5s73.667 -85.167 96 -139.5s33.5 -114.833 33.5 -181.5c0 -31.333 -3.33301 -63.666 -10 -96.999l-733 -1
c-1.33301 -24.667 -2 -44.334 -2 -59.001c0 -44.667 7.66699 -85.667 23 -123s37.666 -69 66.999 -95s64.333 -45.167 105 -57.5s80.667 -18.5 120 -18.5c46 0 95.833 5 149.5 15s117.5 27 191.5 51zM362 631.001l468.002 -0.998047c0 32 -1 55.667 -3 71
s-6.5 32.833 -13.5 52.5s-16.5 37 -28.5 52s-26 27.5 -42 37.5s-34.5 17.667 -55.5 23s-43.5 8 -67.5 8c-28 0 -55.167 -4.33301 -81.5 -13s-50.5 -21.334 -72.5 -38.001s-39.833 -35.334 -53.5 -56.001s-23.834 -40.5 -30.501 -59.5s-13.334 -44.5 -20.001 -76.5z
M684.002 1196l9.00098 162c44 -1.33301 78.667 -2 104 -2s58.666 0.666992 99.999 2l-6 -162c-40 1.33301 -73 2 -99 2c-22.667 0 -58.667 -0.666992 -108 -2zM346.003 1196l8.00098 162c44.667 -1.33301 79.667 -2 105 -2s58.666 0.666992 99.999 2
c-1.33301 -14 -3.33301 -68 -6 -162c-40 1.33301 -73 2 -99 2c-22.667 0 -58.667 -0.666992 -108 -2z" />
    <glyph glyph-name="igrave" unicode="&#xec;" horiz-adv-x="547" 
d="M104 0c10 100 17.002 183.668 21.002 251.001c6.66699 106.667 12.5 229.667 17.5 369s8.5 271.666 10.5 396.999c65.333 -1.33301 114.333 -2 147 -2c30 0 78.667 0.666992 146 2c-9.33301 -116 -16.833 -226.667 -22.5 -332s-9.83398 -226 -12.501 -362
s-4 -243.667 -4 -323c-60.667 1.33301 -109.334 2 -146.001 2c-34.667 0 -87 -0.666992 -157 -2zM432.002 1154c-38.667 1.33301 -73.002 2 -103.002 2c-39.333 0 -75.666 -0.666992 -108.999 -2l-75 109c-23.333 34 -55.666 78.667 -96.999 134
c64 -1.33301 114.333 -2 151 -2c46 0 95.333 0.666992 148 2l26 -75l28 -80z" />
    <glyph glyph-name="iacute" unicode="&#xed;" horiz-adv-x="546" 
d="M100 0c10 100 17.002 183.668 21.002 251.001c6.66699 106.667 12.5 229.667 17.5 369s8.5 271.666 10.5 396.999c65.333 -1.33301 114.333 -2 147 -2c30 0 78.667 0.666992 146 2c-9.33301 -116 -16.833 -226.667 -22.5 -332s-9.83398 -226 -12.501 -362
s-4 -243.667 -4 -323c-60.667 1.33301 -109.334 2 -146.001 2c-34.667 0 -87 -0.666992 -157 -2zM169.002 1154l37 91.999l27 72l31 79c54 -1.33301 103.667 -2 149 -2c37.333 0 87.333 0.666992 150 2c-44.667 -55.333 -78 -98.666 -100 -129.999l-83 -113
c-35.333 1.33301 -71.333 2 -108 2c-32.667 0 -67 -0.666992 -103 -2z" />
    <glyph glyph-name="icircumflex" unicode="&#xee;" horiz-adv-x="547" 
d="M113 0c10 100 17.002 183.668 21.002 251.001c6.66699 106.667 12.5 229.667 17.5 369s8.5 271.666 10.5 396.999c65.333 -1.33301 114.333 -2 147 -2c30 0 78.667 0.666992 146 2c-9.33301 -116 -16.833 -226.667 -22.5 -332s-9.83398 -226 -12.501 -362
s-4 -243.667 -4 -323c-60.667 1.33301 -109.334 2 -146.001 2c-34.667 0 -87 -0.666992 -157 -2zM44.002 1161c41.333 76 80.667 152.332 118 228.999c58.667 -0.666992 112.334 -1 161.001 -1c31.333 0 81.333 0.333008 150 1
c29.333 -69.333 64.666 -145.666 105.999 -228.999c-35.333 1.33301 -64 2 -86 2c-15.333 0 -43 -0.666992 -83 -2l-91 131l-100 -131c-26.667 1.33301 -54.667 2 -84 2c-34 0 -64.333 -0.666992 -91 -2z" />
    <glyph glyph-name="idieresis" unicode="&#xef;" horiz-adv-x="547" 
d="M132 0c10 100 17.002 183.668 21.002 251.001c6.66699 106.667 12.5 229.667 17.5 369s8.5 271.666 10.5 396.999c65.333 -1.33301 114.333 -2 147 -2c30 0 78.667 0.666992 146 2c-9.33301 -116 -16.833 -226.667 -22.5 -332s-9.83398 -226 -12.501 -362
s-4 -243.667 -4 -323c-60.667 1.33301 -109.334 2 -146.001 2c-34.667 0 -87 -0.666992 -157 -2zM399.002 1197l9.00098 162c44 -1.33301 78.667 -2 104 -2s58.666 0.666992 99.999 2l-6 -162c-40 1.33301 -73 2 -99 2c-22.667 0 -58.667 -0.666992 -108 -2zM61.0029 1197
l8.00098 162c44.667 -1.33301 79.667 -2 105 -2s58.666 0.666992 99.999 2c-1.33301 -14 -3.33301 -68 -6 -162c-40 1.33301 -73 2 -99 2c-22.667 0 -58.667 -0.666992 -108 -2z" />
    <glyph glyph-name="eth" unicode="&#xf0;" horiz-adv-x="1265" 
d="M462 1449c8 4.66699 26.0039 14.168 54.0039 28.501l66.5 35c16.333 9 33.166 19.167 50.499 30.5l33 -47c12 -16.667 21.5 -30.334 28.5 -41.001l13.5 -20.5c2 -3 6.66699 -9.16699 14 -18.5l36 23c8.66699 5.33301 17.667 11.333 27 18l27 20
c9.33301 7.33301 19.333 14 30 20l33 -66c13.333 -25.333 25.333 -46 36 -62l-74 -48c-11.333 -7.33301 -26 -16 -44 -26l96 -150l76 -114l80 -111c46 -62.667 77.5 -109.5 94.5 -140.5s30.333 -67.833 40 -110.5s14.5 -88.667 14.5 -138
c0 -76.667 -13.333 -150.334 -40 -221.001s-64.834 -131.5 -114.501 -182.5s-111.5 -89 -185.5 -114s-153 -37.5 -237 -37.5c-104.667 0 -199.5 20.833 -284.5 62.5s-149.667 103 -194 184s-66.5 168.5 -66.5 262.5c0 76.667 12.167 149.5 36.5 218.5
s62.166 128.333 113.499 178s112.666 88.667 183.999 117s145.333 42.5 222 42.5c45.333 0 86 -5 122 -15c-24.667 36.667 -50.5 71.5 -77.5 104.5s-45.167 57.167 -54.5 72.5c-30 -19.333 -53 -35.166 -69 -47.499s-30.667 -22.833 -44 -31.5l-34 67
c-12.667 25.333 -24.667 46 -36 62l19 10c1.33301 1.33301 10.333 7.66602 27 18.999l26 17c0 0.666992 5.33301 4 16 10l28 17c-4.66699 4.66699 -14.667 19.334 -30 44.001zM647.004 835.001c-58 0 -109.832 -14.165 -155.499 -42.498s-79.667 -70.5 -102 -126.5
s-33.5 -117 -33.5 -183c0 -58 9.16699 -109.667 27.5 -155s48.333 -82 90 -110s91.167 -42 148.5 -42c58.667 0 110.167 14.5 154.5 43.5s77.666 71.667 99.999 128s33.5 118.5 33.5 186.5c0 55.333 -8.66699 105.666 -26 150.999s-46.5 81.666 -87.5 108.999
s-90.833 41 -149.5 41z" />
    <glyph glyph-name="ntilde" unicode="&#xf1;" horiz-adv-x="1311" 
d="M93 0c15.333 151.333 28.1699 321.335 38.5029 510.002s16.166 357.667 17.499 507c61.333 -1.33301 110.333 -2 147 -2c43.333 0 89.333 0.666992 138 2l-11 -170c20.667 29.333 38.834 52.666 54.501 69.999s35.667 34.333 60 51s50.333 30 78 40s58.667 18 93 24
s70.166 9 107.499 9c59.333 0 116.166 -7.5 170.499 -22.5s98.166 -38.833 131.499 -71.5s55.333 -68.334 66 -107.001s16 -79.667 16 -123c0 -18 -1 -46.667 -3 -86l-21 -437c-2.66699 -60.667 -4.33398 -125.334 -5.00098 -194.001c-52.667 1.33301 -97.667 2 -135 2
c-50.667 0 -101.667 -0.666992 -153 -2c5.33301 58 12 159.167 20 303.5s12 239.833 12 286.5c0 52.667 -8.33301 95 -25 127s-42.5 56.333 -77.5 73s-72.833 25 -113.5 25c-40 0 -77.333 -7.66699 -112 -23s-64.667 -37.666 -90 -66.999
c-26.667 -30 -47.334 -67 -62.001 -111c-15.333 -46.667 -26.666 -123.667 -33.999 -231c-6.66699 -95.333 -12 -223 -16 -383c-51.333 1.33301 -97.666 2 -138.999 2c-42 0 -93 -0.666992 -153 -2zM411.004 1171c0.666992 52 6.49512 95.335 17.4951 130.002
s26.5 59.167 46.5 73.5s42.667 21.5 68 21.5c8.66699 0 17.667 -0.833008 27 -2.5s18.666 -4.33398 27.999 -8.00098s17.5 -7.5 24.5 -11.5s20.5 -12.333 40.5 -25l52 -33c12 -7.33301 23.333 -13.666 34 -18.999s21.667 -8 33 -8c8.66699 0 16.5 1.66699 23.5 5
s12.833 8.83301 17.5 16.5s7.83398 16.167 9.50098 25.5s3.5 23 5.5 41c28 -1.33301 49 -2 63 -2s35.667 0.666992 65 2c0 -45.333 -4.5 -83.666 -13.5 -114.999s-23.5 -57.5 -43.5 -78.5s-47 -31.5 -81 -31.5c-12.667 0 -25.167 1.66699 -37.5 5
s-25.166 8.66602 -38.499 15.999s-36.666 21.666 -69.999 42.999s-55.333 34.333 -66 39s-21 7 -31 7c-11.333 0 -21.166 -3.66699 -29.499 -11s-13.666 -16.333 -15.999 -27s-4.16602 -28.334 -5.49902 -53.001c-26 1.33301 -47 2 -63 2s-36 -0.666992 -60 -2z" />
    <glyph glyph-name="ograve" unicode="&#xf2;" horiz-adv-x="1265" 
d="M647 1041c76.667 0 150.167 -11.498 220.5 -34.498s130 -57 179 -102s85.833 -100 110.5 -165s37 -133.5 37 -205.5c0 -76 -13 -149.333 -39 -220s-63.667 -131.834 -113 -183.501s-110.833 -90.334 -184.5 -116.001s-152.167 -38.5 -235.5 -38.5
c-77.333 0 -150.833 11.5 -220.5 34.5s-129.167 57.5 -178.5 103.5s-86.833 102 -112.5 168s-38.5 135 -38.5 207c0 73.333 11.667 143.333 35 210s59.833 126 109.5 178s113.167 92.333 190.5 121s157.333 43 240 43zM647 835.002c-58 0 -109.832 -14.165 -155.499 -42.498
s-79.667 -70.5 -102 -126.5s-33.5 -117 -33.5 -183c0 -58 9.16699 -109.667 27.5 -155s48.333 -82 90 -110s91.167 -42 148.5 -42c58.667 0 110.167 14.5 154.5 43.5s77.666 71.667 99.999 128s33.5 118.5 33.5 186.5c0 55.333 -8.66699 105.666 -26 150.999
s-46.5 81.666 -87.5 108.999s-90.833 41 -149.5 41zM787.001 1154c-38.667 1.33301 -73.002 2 -103.002 2c-39.333 0 -75.666 -0.666992 -108.999 -2l-75 109c-23.333 34 -55.666 78.667 -96.999 134c64 -1.33301 114.333 -2 151 -2c46 0 95.333 0.666992 148 2l26 -75
l28 -80z" />
    <glyph glyph-name="oacute" unicode="&#xf3;" horiz-adv-x="1265" 
d="M647 1041c76.667 0 150.167 -11.498 220.5 -34.498s130 -57 179 -102s85.833 -100 110.5 -165s37 -133.5 37 -205.5c0 -76 -13 -149.333 -39 -220s-63.667 -131.834 -113 -183.501s-110.833 -90.334 -184.5 -116.001s-152.167 -38.5 -235.5 -38.5
c-77.333 0 -150.833 11.5 -220.5 34.5s-129.167 57.5 -178.5 103.5s-86.833 102 -112.5 168s-38.5 135 -38.5 207c0 73.333 11.667 143.333 35 210s59.833 126 109.5 178s113.167 92.333 190.5 121s157.333 43 240 43zM647 835.002c-58 0 -109.832 -14.165 -155.499 -42.498
s-79.667 -70.5 -102 -126.5s-33.5 -117 -33.5 -183c0 -58 9.16699 -109.667 27.5 -155s48.333 -82 90 -110s91.167 -42 148.5 -42c58.667 0 110.167 14.5 154.5 43.5s77.666 71.667 99.999 128s33.5 118.5 33.5 186.5c0 55.333 -8.66699 105.666 -26 150.999
s-46.5 81.666 -87.5 108.999s-90.833 41 -149.5 41zM529.001 1154l37 91.999l27 72l31 79c54 -1.33301 103.667 -2 149 -2c37.333 0 87.333 0.666992 150 2c-44.667 -55.333 -78 -98.666 -100 -129.999l-83 -113c-35.333 1.33301 -71.333 2 -108 2
c-32.667 0 -67 -0.666992 -103 -2z" />
    <glyph glyph-name="ocircumflex" unicode="&#xf4;" horiz-adv-x="1265" 
d="M647 1041c76.667 0 150.167 -11.498 220.5 -34.498s130 -57 179 -102s85.833 -100 110.5 -165s37 -133.5 37 -205.5c0 -76 -13 -149.333 -39 -220s-63.667 -131.834 -113 -183.501s-110.833 -90.334 -184.5 -116.001s-152.167 -38.5 -235.5 -38.5
c-77.333 0 -150.833 11.5 -220.5 34.5s-129.167 57.5 -178.5 103.5s-86.833 102 -112.5 168s-38.5 135 -38.5 207c0 73.333 11.667 143.333 35 210s59.833 126 109.5 178s113.167 92.333 190.5 121s157.333 43 240 43zM647 835.002c-58 0 -109.832 -14.165 -155.499 -42.498
s-79.667 -70.5 -102 -126.5s-33.5 -117 -33.5 -183c0 -58 9.16699 -109.667 27.5 -155s48.333 -82 90 -110s91.167 -42 148.5 -42c58.667 0 110.167 14.5 154.5 43.5s77.666 71.667 99.999 128s33.5 118.5 33.5 186.5c0 55.333 -8.66699 105.666 -26 150.999
s-46.5 81.666 -87.5 108.999s-90.833 41 -149.5 41zM395.001 1161c41.333 76 80.667 152.332 118 228.999c58.667 -0.666992 112.334 -1 161.001 -1c31.333 0 81.333 0.333008 150 1c29.333 -69.333 64.666 -145.666 105.999 -228.999c-35.333 1.33301 -64 2 -86 2
c-15.333 0 -43 -0.666992 -83 -2l-91 131l-100 -131c-26.667 1.33301 -54.667 2 -84 2c-34 0 -64.333 -0.666992 -91 -2z" />
    <glyph glyph-name="otilde" unicode="&#xf5;" horiz-adv-x="1265" 
d="M647 1041c76.667 0 150.167 -11.498 220.5 -34.498s130 -57 179 -102s85.833 -100 110.5 -165s37 -133.5 37 -205.5c0 -76 -13 -149.333 -39 -220s-63.667 -131.834 -113 -183.501s-110.833 -90.334 -184.5 -116.001s-152.167 -38.5 -235.5 -38.5
c-77.333 0 -150.833 11.5 -220.5 34.5s-129.167 57.5 -178.5 103.5s-86.833 102 -112.5 168s-38.5 135 -38.5 207c0 73.333 11.667 143.333 35 210s59.833 126 109.5 178s113.167 92.333 190.5 121s157.333 43 240 43zM647 835.002c-58 0 -109.832 -14.165 -155.499 -42.498
s-79.667 -70.5 -102 -126.5s-33.5 -117 -33.5 -183c0 -58 9.16699 -109.667 27.5 -155s48.333 -82 90 -110s91.167 -42 148.5 -42c58.667 0 110.167 14.5 154.5 43.5s77.666 71.667 99.999 128s33.5 118.5 33.5 186.5c0 55.333 -8.66699 105.666 -26 150.999
s-46.5 81.666 -87.5 108.999s-90.833 41 -149.5 41zM391.001 1171c0.666992 52 6.49512 95.335 17.4951 130.002s26.5 59.167 46.5 73.5s42.667 21.5 68 21.5c8.66699 0 17.667 -0.833008 27 -2.5s18.666 -4.33398 27.999 -8.00098s17.5 -7.5 24.5 -11.5
s20.5 -12.333 40.5 -25l52 -33c12 -7.33301 23.333 -13.666 34 -18.999s21.667 -8 33 -8c8.66699 0 16.5 1.66699 23.5 5s12.833 8.83301 17.5 16.5s7.83398 16.167 9.50098 25.5s3.5 23 5.5 41c28 -1.33301 49 -2 63 -2s35.667 0.666992 65 2
c0 -45.333 -4.5 -83.666 -13.5 -114.999s-23.5 -57.5 -43.5 -78.5s-47 -31.5 -81 -31.5c-12.667 0 -25.167 1.66699 -37.5 5s-25.166 8.66602 -38.499 15.999s-36.666 21.666 -69.999 42.999s-55.333 34.333 -66 39s-21 7 -31 7c-11.333 0 -21.166 -3.66699 -29.499 -11
s-13.666 -16.333 -15.999 -27s-4.16602 -28.334 -5.49902 -53.001c-26 1.33301 -47 2 -63 2s-36 -0.666992 -60 -2z" />
    <glyph glyph-name="odieresis" unicode="&#xf6;" horiz-adv-x="1265" 
d="M647 1041c76.667 0 150.167 -11.498 220.5 -34.498s130 -57 179 -102s85.833 -100 110.5 -165s37 -133.5 37 -205.5c0 -76 -13 -149.333 -39 -220s-63.667 -131.834 -113 -183.501s-110.833 -90.334 -184.5 -116.001s-152.167 -38.5 -235.5 -38.5
c-77.333 0 -150.833 11.5 -220.5 34.5s-129.167 57.5 -178.5 103.5s-86.833 102 -112.5 168s-38.5 135 -38.5 207c0 73.333 11.667 143.333 35 210s59.833 126 109.5 178s113.167 92.333 190.5 121s157.333 43 240 43zM647 835.002c-58 0 -109.832 -14.165 -155.499 -42.498
s-79.667 -70.5 -102 -126.5s-33.5 -117 -33.5 -183c0 -58 9.16699 -109.667 27.5 -155s48.333 -82 90 -110s91.167 -42 148.5 -42c58.667 0 110.167 14.5 154.5 43.5s77.666 71.667 99.999 128s33.5 118.5 33.5 186.5c0 55.333 -8.66699 105.666 -26 150.999
s-46.5 81.666 -87.5 108.999s-90.833 41 -149.5 41zM729.001 1196l9.00098 162c44 -1.33301 78.667 -2 104 -2s58.666 0.666992 99.999 2l-6 -162c-40 1.33301 -73 2 -99 2c-22.667 0 -58.667 -0.666992 -108 -2zM391.002 1196l8.00098 162
c44.667 -1.33301 79.667 -2 105 -2s58.666 0.666992 99.999 2c-1.33301 -14 -3.33301 -68 -6 -162c-40 1.33301 -73 2 -99 2c-22.667 0 -58.667 -0.666992 -108 -2z" />
    <glyph glyph-name="divide" unicode="&#xf7;" 
d="M535 947l5 76.001c1.33301 17.333 2.33301 35.666 3 54.999l3 77c34.667 -0.666992 71 -1 109 -1c37.333 0 73.333 0.333008 108 1l-11 -208c-37.333 1.33301 -73.333 2 -108 2s-71 -0.666992 -109 -2zM113 794.001c190 -2.66699 364.669 -4 524.002 -4
c160.667 0 335.667 1.33301 525 4c-4.66699 -47.333 -8.33398 -108 -11.001 -182c-196 3.33301 -370.667 5 -524 5s-328 -1.66699 -524 -5c5.33301 50 8.66602 110.667 9.99902 182zM502.002 251.001l5 75c1.33301 17.333 2.33301 35.333 3 54l3 80
c34.667 -1.33301 71 -2 109 -2c37.333 0 73.333 0.666992 108 2l-11 -209c-37.333 1.33301 -73.333 2 -108 2s-71 -0.666992 -109 -2z" />
    <glyph glyph-name="oslash" unicode="&#xf8;" horiz-adv-x="1260" 
d="M817 1010l68.9971 120.001c31.333 -1.33301 70.333 -2 117 -2c36.667 0 75.334 0.666992 116.001 2l-112 -196c24.667 -19.333 44.834 -36.833 60.501 -52.5s30.667 -34.167 45 -55.5s27.166 -46.5 38.499 -75.5s20.333 -62.167 27 -99.5s10 -77 10 -119
c0 -78 -12.667 -150.5 -38 -217.5s-62.833 -125.833 -112.5 -176.5s-109.667 -90.5 -180 -119.5s-140.5 -43.5 -210.5 -43.5c-28.667 0 -58 2.5 -88 7.5s-65.333 12.833 -106 23.5l-70 -121c-61.333 1.33301 -101 2 -119 2c-6 0 -46 -0.666992 -120 -2l117 196
c-69.333 54 -118.166 115.333 -146.499 184s-42.5 140 -42.5 214c0 82 13 159 39 231s66.333 132.167 121 180.5s119.334 85.666 194.001 111.999s143.667 39.5 207 39.5c28 0 56.333 -2.66699 85 -8s61.667 -13.333 99 -24zM708.997 834.001
c-23.333 4.66699 -45.667 7.00098 -67 7.00098c-63.333 0 -116.5 -15.833 -159.5 -47.5s-74.833 -74.334 -95.5 -128.001s-31 -112.167 -31 -175.5c0 -70.667 13.333 -131 40 -181zM869.996 708.002l-307 -520c20.667 -4 40.667 -6 60 -6c54 0 102.333 13 145 39
s76 67.167 100 123.5s36 120.5 36 192.5c0 25.333 -1.66699 49.333 -5 72s-7 40.667 -11 54s-10 28.333 -18 45z" />
    <glyph glyph-name="ugrave" unicode="&#xf9;" horiz-adv-x="1282" 
d="M1134 0c-58.667 1.33301 -103.666 2 -134.999 2c-39.333 0 -84 -0.666992 -134 -2l2 166c-18.667 -28 -35 -50.5 -49 -67.5s-32.333 -33.667 -55 -50s-47.334 -29.333 -74.001 -39s-57.167 -17.667 -91.5 -24s-70.833 -9.5 -109.5 -9.5
c-74.667 0 -139.667 10.833 -195 32.5s-99.166 54.5 -131.499 98.5s-48.5 107 -48.5 189v21l16 258l15 340c0.666992 27.333 1 61.333 1 102c63.333 -1.33301 113 -2 149 -2c38 0 84 0.666992 138 2l-33 -456c-2 -35.333 -3.5 -65.166 -4.5 -89.499s-1.5 -41.833 -1.5 -52.5
c0 -48 7.16699 -87.833 21.5 -119.5s39.333 -55.834 75 -72.501s73.834 -25 114.501 -25c38.667 0 75.334 7.33301 110.001 22c31.333 13.333 58.166 32 80.499 56s41.166 56.333 56.499 97c11.333 29.333 20 70 26 122c4.66699 36.667 9 99.667 13 189
c5.33301 108 9 217.667 11 329c66 -1.33301 116.333 -2 151 -2c39.333 0 83.666 0.666992 132.999 2c-8 -95.333 -16.333 -214.5 -25 -357.5s-14.667 -261 -18 -354s-6 -194.833 -8 -305.5zM797.001 1154c-38.667 1.33301 -73.002 2 -103.002 2
c-39.333 0 -75.666 -0.666992 -108.999 -2l-75 109c-23.333 34 -55.666 78.667 -96.999 134c64 -1.33301 114.333 -2 151 -2c46 0 95.333 0.666992 148 2l26 -75l28 -80z" />
    <glyph glyph-name="uacute" unicode="&#xfa;" horiz-adv-x="1282" 
d="M1134 0c-58.667 1.33301 -103.666 2 -134.999 2c-39.333 0 -84 -0.666992 -134 -2l2 166c-18.667 -28 -35 -50.5 -49 -67.5s-32.333 -33.667 -55 -50s-47.334 -29.333 -74.001 -39s-57.167 -17.667 -91.5 -24s-70.833 -9.5 -109.5 -9.5
c-74.667 0 -139.667 10.833 -195 32.5s-99.166 54.5 -131.499 98.5s-48.5 107 -48.5 189v21l16 258l15 340c0.666992 27.333 1 61.333 1 102c63.333 -1.33301 113 -2 149 -2c38 0 84 0.666992 138 2l-33 -456c-2 -35.333 -3.5 -65.166 -4.5 -89.499s-1.5 -41.833 -1.5 -52.5
c0 -48 7.16699 -87.833 21.5 -119.5s39.333 -55.834 75 -72.501s73.834 -25 114.501 -25c38.667 0 75.334 7.33301 110.001 22c31.333 13.333 58.166 32 80.499 56s41.166 56.333 56.499 97c11.333 29.333 20 70 26 122c4.66699 36.667 9 99.667 13 189
c5.33301 108 9 217.667 11 329c66 -1.33301 116.333 -2 151 -2c39.333 0 83.666 0.666992 132.999 2c-8 -95.333 -16.333 -214.5 -25 -357.5s-14.667 -261 -18 -354s-6 -194.833 -8 -305.5zM539.001 1154l37 91.999l27 72l31 79c54 -1.33301 103.667 -2 149 -2
c37.333 0 87.333 0.666992 150 2c-44.667 -55.333 -78 -98.666 -100 -129.999l-83 -113c-35.333 1.33301 -71.333 2 -108 2c-32.667 0 -67 -0.666992 -103 -2z" />
    <glyph glyph-name="ucircumflex" unicode="&#xfb;" horiz-adv-x="1282" 
d="M1134 0c-58.667 1.33301 -103.666 2 -134.999 2c-39.333 0 -84 -0.666992 -134 -2l2 166c-18.667 -28 -35 -50.5 -49 -67.5s-32.333 -33.667 -55 -50s-47.334 -29.333 -74.001 -39s-57.167 -17.667 -91.5 -24s-70.833 -9.5 -109.5 -9.5
c-74.667 0 -139.667 10.833 -195 32.5s-99.166 54.5 -131.499 98.5s-48.5 107 -48.5 189v21l16 258l15 340c0.666992 27.333 1 61.333 1 102c63.333 -1.33301 113 -2 149 -2c38 0 84 0.666992 138 2l-33 -456c-2 -35.333 -3.5 -65.166 -4.5 -89.499s-1.5 -41.833 -1.5 -52.5
c0 -48 7.16699 -87.833 21.5 -119.5s39.333 -55.834 75 -72.501s73.834 -25 114.501 -25c38.667 0 75.334 7.33301 110.001 22c31.333 13.333 58.166 32 80.499 56s41.166 56.333 56.499 97c11.333 29.333 20 70 26 122c4.66699 36.667 9 99.667 13 189
c5.33301 108 9 217.667 11 329c66 -1.33301 116.333 -2 151 -2c39.333 0 83.666 0.666992 132.999 2c-8 -95.333 -16.333 -214.5 -25 -357.5s-14.667 -261 -18 -354s-6 -194.833 -8 -305.5zM405.001 1161c41.333 76 80.667 152.332 118 228.999
c58.667 -0.666992 112.334 -1 161.001 -1c31.333 0 81.333 0.333008 150 1c29.333 -69.333 64.666 -145.666 105.999 -228.999c-35.333 1.33301 -64 2 -86 2c-15.333 0 -43 -0.666992 -83 -2l-91 131l-100 -131c-26.667 1.33301 -54.667 2 -84 2
c-34 0 -64.333 -0.666992 -91 -2z" />
    <glyph glyph-name="udieresis" unicode="&#xfc;" horiz-adv-x="1282" 
d="M1134 0c-58.667 1.33301 -103.666 2 -134.999 2c-39.333 0 -84 -0.666992 -134 -2l2 166c-18.667 -28 -35 -50.5 -49 -67.5s-32.333 -33.667 -55 -50s-47.334 -29.333 -74.001 -39s-57.167 -17.667 -91.5 -24s-70.833 -9.5 -109.5 -9.5
c-74.667 0 -139.667 10.833 -195 32.5s-99.166 54.5 -131.499 98.5s-48.5 107 -48.5 189v21l16 258l15 340c0.666992 27.333 1 61.333 1 102c63.333 -1.33301 113 -2 149 -2c38 0 84 0.666992 138 2l-33 -456c-2 -35.333 -3.5 -65.166 -4.5 -89.499s-1.5 -41.833 -1.5 -52.5
c0 -48 7.16699 -87.833 21.5 -119.5s39.333 -55.834 75 -72.501s73.834 -25 114.501 -25c38.667 0 75.334 7.33301 110.001 22c31.333 13.333 58.166 32 80.499 56s41.166 56.333 56.499 97c11.333 29.333 20 70 26 122c4.66699 36.667 9 99.667 13 189
c5.33301 108 9 217.667 11 329c66 -1.33301 116.333 -2 151 -2c39.333 0 83.666 0.666992 132.999 2c-8 -95.333 -16.333 -214.5 -25 -357.5s-14.667 -261 -18 -354s-6 -194.833 -8 -305.5zM740.001 1196l9.00098 162c44 -1.33301 78.667 -2 104 -2
s58.666 0.666992 99.999 2l-6 -162c-40 1.33301 -73 2 -99 2c-22.667 0 -58.667 -0.666992 -108 -2zM402.002 1196l8.00098 162c44.667 -1.33301 79.667 -2 105 -2s58.666 0.666992 99.999 2c-1.33301 -14 -3.33301 -68 -6 -162c-40 1.33301 -73 2 -99 2
c-22.667 0 -58.667 -0.666992 -108 -2z" />
    <glyph glyph-name="yacute" unicode="&#xfd;" horiz-adv-x="1104" 
d="M-25 -460c-12 100 -21.668 172 -29.001 216c64 -30 124.333 -45 181 -45c17.333 0 35 2.16699 53 6.5s34.667 10.5 50 18.5c10 5.33301 20.167 13 30.5 23s24.5 28.333 42.5 55s33.667 53 47 79c10.667 22 21.667 49.667 33 83l-208 609l-152 432
c70 -1.33301 120.333 -2 151 -2c35.333 0 81.666 0.666992 138.999 2c14 -55.333 27 -103.333 39 -144l95 -314c29.333 -96.667 50.333 -169.334 63 -218.001c8 -32 17.333 -74.333 28 -127c20 60.667 37.333 110 52 148l109 278l97 239c17.333 42.667 35 88.667 53 138
c60 -1.33301 105.667 -2 137 -2c28.667 0 76.667 0.666992 144 2l-385 -863l-167 -381c-23.333 -49.333 -45.666 -87.666 -66.999 -114.999c-17.333 -23.333 -36.333 -43.333 -57 -60c-20 -16 -41.333 -29.333 -64 -40c-28.667 -13.333 -59.667 -24 -93 -32
c-38 -8 -76.333 -12 -115 -12c-22 0 -52.667 2 -92 6s-77.666 10.667 -114.999 20zM447.999 1154l37 91.999l27 72l31 79c54 -1.33301 103.667 -2 149 -2c37.333 0 87.333 0.666992 150 2c-44.667 -55.333 -78 -98.666 -100 -129.999l-83 -113
c-35.333 1.33301 -71.333 2 -108 2c-32.667 0 -67 -0.666992 -103 -2z" />
    <glyph glyph-name="thorn" unicode="&#xfe;" horiz-adv-x="1280" 
d="M82 -459l23 306l27 528l17 447l12 543c53.333 -1.33301 100.333 -2 141 -2s88 0.666992 142 2c-14.667 -179.333 -23 -306.666 -25 -381.999c46.667 21.333 95.667 36.666 147 45.999s98.666 14 141.999 14c98 0 186.333 -21.333 265 -64s137.5 -105 176.5 -187
s58.5 -172.333 58.5 -271c0 -72 -10.167 -141.333 -30.5 -208s-51.166 -126.5 -92.499 -179.5s-89.833 -92.5 -145.5 -118.5s-118.834 -39 -189.501 -39c-40 0 -79.333 4.83301 -118 14.5s-72.5 22 -101.5 37s-52.667 30.333 -71 46s-41.833 39.167 -70.5 70.5l-15 -435
l-1 -68c-0.666992 -8.66699 -1 -42 -1 -100c-61.333 0.666992 -108.666 1 -141.999 1zM415 800c-3.33301 -28 -5.33203 -48.6709 -5.99902 -62.0039l-8 -188l-1 -58c0 -40.667 4 -79.667 12 -117s24.333 -71.666 49 -102.999s54 -55.166 88 -71.499s70 -24.5 108 -24.5
c52.667 0 99.667 14.167 141 42.5s73.666 70.333 96.999 126s35 116.167 35 181.5c0 70.667 -12.5 130.334 -37.5 179.001s-58.5 83.834 -100.5 105.501s-89.667 32.5 -143 32.5c-70 0 -148 -14.333 -234 -43z" />
    <glyph glyph-name="ydieresis" unicode="&#xff;" horiz-adv-x="1104" 
d="M-25 -460c-12 100 -21.668 172 -29.001 216c64 -30 124.333 -45 181 -45c17.333 0 35 2.16699 53 6.5s34.667 10.5 50 18.5c10 5.33301 20.167 13 30.5 23s24.5 28.333 42.5 55s33.667 53 47 79c10.667 22 21.667 49.667 33 83l-208 609l-152 432
c70 -1.33301 120.333 -2 151 -2c35.333 0 81.666 0.666992 138.999 2c14 -55.333 27 -103.333 39 -144l95 -314c29.333 -96.667 50.333 -169.334 63 -218.001c8 -32 17.333 -74.333 28 -127c20 60.667 37.333 110 52 148l109 278l97 239c17.333 42.667 35 88.667 53 138
c60 -1.33301 105.667 -2 137 -2c28.667 0 76.667 0.666992 144 2l-385 -863l-167 -381c-23.333 -49.333 -45.666 -87.666 -66.999 -114.999c-17.333 -23.333 -36.333 -43.333 -57 -60c-20 -16 -41.333 -29.333 -64 -40c-28.667 -13.333 -59.667 -24 -93 -32
c-38 -8 -76.333 -12 -115 -12c-22 0 -52.667 2 -92 6s-77.666 10.667 -114.999 20zM647.999 1196l9.00098 162c44 -1.33301 78.667 -2 104 -2s58.666 0.666992 99.999 2l-6 -162c-40 1.33301 -73 2 -99 2c-22.667 0 -58.667 -0.666992 -108 -2zM310 1196l8.00098 162
c44.667 -1.33301 79.667 -2 105 -2s58.666 0.666992 99.999 2c-1.33301 -14 -3.33301 -68 -6 -162c-40 1.33301 -73 2 -99 2c-22.667 0 -58.667 -0.666992 -108 -2z" />
    <glyph glyph-name="dotlessi" unicode="&#x131;" horiz-adv-x="546" 
d="M100 0c10 100 17.002 183.668 21.002 251.001c6.66699 106.667 12.5 229.667 17.5 369s8.5 271.666 10.5 396.999c65.333 -1.33301 114.333 -2 147 -2c30 0 78.667 0.666992 146 2c-9.33301 -116 -16.833 -226.667 -22.5 -332s-9.83398 -226 -12.501 -362
s-4 -243.667 -4 -323c-60.667 1.33301 -109.334 2 -146.001 2c-34.667 0 -87 -0.666992 -157 -2z" />
    <glyph glyph-name="Lslash" unicode="&#x141;" horiz-adv-x="1100" 
d="M787 1097c-4.66699 -64 -7.33398 -109.667 -8.00098 -137l-3 -111c-35.333 -22.667 -142.666 -102 -321.999 -238c-4.66699 -81.333 -9.66699 -214.333 -15 -399l172 -2c161.333 0 267.5 0.5 318.5 1.5s100.833 2.83301 149.5 5.5
c-5.33301 -65.333 -10.666 -137.666 -15.999 -216.999c-174.667 1.33301 -324.334 2 -449.001 2l-316 -1l-188 -1l18 192c4.66699 54 9.66699 138 15 252l-91 -72c-26.667 -22 -47.667 -38.667 -63 -50c5.33301 69.333 9.33301 152 12 248c20.667 14 46.667 32.667 78 56
l80 58l18 506l1 88l1 87c68.667 -1.33301 125.667 -2 171 -2c30 0 78.667 0.666992 146 2c-11.333 -164.667 -21 -338.334 -29 -521.001c138 106 244.667 190.333 320 253z" />
    <glyph glyph-name="lslash" unicode="&#x142;" horiz-adv-x="573" 
d="M4 382c7.33301 81.333 12.3311 167 14.998 257c7.33301 4.66699 53.333 37.667 138 99c10 196 16.667 405 20 627c70 -1.33301 119.667 -2 149 -2c38.667 0 86.667 0.666992 144 2l-6 -74c-1.33301 -18 -3.66602 -59.667 -6.99902 -125l-15 -271l146 115
c-8 -83.333 -12.333 -168.333 -13 -255l-83 -59l-63 -47l-22 -649c-55.333 1.33301 -101.666 2 -138.999 2c-13.333 0 -64.333 -0.666992 -153 -2l7 92c2 28 3.66699 56.667 5 86l16 314z" />
    <glyph glyph-name="OE" unicode="&#x152;" horiz-adv-x="2148" 
d="M2016 223l-3 -113.999v-109c-194.667 0.666992 -363.667 1 -507 1c-156 0 -255.333 -0.666992 -298 -2s-109.334 -3.83301 -200.001 -7.5s-158 -5.5 -202 -5.5c-78 0 -153.333 7.66699 -226 23s-139.167 40.833 -199.5 76.5s-112.666 81.5 -156.999 137.5
s-78.5 122.167 -102.5 198.5s-36 155.166 -36 236.499c0 86.667 12.667 170.667 38 252s61.5 152.666 108.5 213.999s103.333 111.333 169 150s138.334 65.834 218.001 81.501s163.834 23.5 252.501 23.5c33.333 0 103.666 -2.33301 210.999 -7s260.666 -7 459.999 -7h527
l-6 -100c-1.33301 -18 -3 -56.667 -5 -116c-93.333 4 -183.333 6 -270 6c-32.667 0 -85.334 -0.333008 -158.001 -1s-143.334 -1 -212.001 -1l-16 -360c72.667 -0.666992 156.334 -1 251.001 -1c112.667 0 216 2.66699 310 8c-5.33301 -80 -8.66602 -151 -9.99902 -213
c-74 1.33301 -137.333 2 -190 2c-49.333 0 -97.333 -0.333008 -144 -1l-228 -5l-15 -370c73.333 -2 130.333 -3 171 -3c204 0 360.333 4.33301 469 13zM1086 209.001l39.001 947.999c-106.667 9.33301 -187 14 -241 14c-110.667 0 -202 -21.667 -274 -65
s-126.667 -106.166 -164 -188.499s-56 -169.833 -56 -262.5c0 -85.333 16.667 -163.833 50 -235.5s84.166 -127 152.499 -166s154.5 -58.5 258.5 -58.5c33.333 0 65.333 1.33301 96 4z" />
    <glyph glyph-name="oe" unicode="&#x153;" horiz-adv-x="1963" 
d="M1822 223c-12.667 -65.333 -23.6709 -134.341 -33.0039 -207.008c-88 -16.667 -155 -27.5 -201 -32.5s-89 -7.5 -129 -7.5c-34 0 -67.667 2.33301 -101 7s-64.166 11.334 -92.499 20.001s-53.666 18.667 -75.999 30s-42.666 24.166 -60.999 38.499
s-34.5 29.833 -48.5 46.5s-31.333 42.334 -52 77.001c-38.667 -48.667 -71.667 -85.167 -99 -109.5s-57.333 -44.5 -90 -60.5s-69.667 -28.167 -111 -36.5s-84.666 -12.5 -129.999 -12.5c-78.667 0 -150.667 12.333 -216 37s-122.5 61 -171.5 109s-84.333 102.5 -106 163.5
s-32.5 126.5 -32.5 196.5c0 77.333 12.833 151.833 38.5 223.5s63.834 132.834 114.501 183.501s110.834 88.667 180.501 114s141.834 38 216.501 38c44 0 86.5 -4.33301 127.5 -13s77.167 -19.667 108.5 -33s58.333 -28.166 81 -44.499s42 -33.666 58 -51.999
s34.667 -44.166 56 -77.499c16.667 24.667 31 44.834 43 60.501s27.667 32.167 47 49.5s39.666 32.5 60.999 45.5s45 24.167 71 33.5s55 16.833 87 22.5s65.333 8.5 100 8.5c61.333 0 120.5 -9.16699 177.5 -27.5s106.167 -47 147.5 -86s72.666 -85.333 93.999 -139
s32 -112.167 32 -175.5c0 -30 -3 -62 -9 -96l-725 -1c-0.666992 -20.667 -1 -38.667 -1 -54c0 -61.333 14.333 -115.666 43 -162.999s65.5 -83.166 110.5 -107.499s99.167 -36.5 162.5 -36.5c37.333 0 77.166 3.83301 119.499 11.5s111.833 26.5 208.5 56.5zM1187 628.992
l461.999 1.00098c0 27.333 -1.66699 52.333 -5 75s-9.66602 43.5 -18.999 62.5s-22.5 36.167 -39.5 51.5s-38.167 27.5 -63.5 36.5s-53 13.5 -83 13.5c-36.667 0 -70.5 -6.33301 -101.5 -19s-56.5 -29.334 -76.5 -50.001s-35 -43 -45 -67s-19.667 -58.667 -29 -104z
M645.995 834.993c-61.333 0 -115.499 -15.1689 -162.499 -45.502s-81.167 -71.833 -102.5 -124.5s-32 -111.667 -32 -177c0 -66 10.167 -121.167 30.5 -165.5s52.166 -79.833 95.499 -106.5s93.333 -40 150 -40c55.333 0 105.833 13.833 151.5 41.5s80 71.5 103 131.5
s34.5 122.333 34.5 187s-12.167 120.334 -36.5 167.001s-56.5 80.334 -96.5 101.001s-85 31 -135 31z" />
    <glyph glyph-name="Scaron" unicode="&#x160;" horiz-adv-x="1050" 
d="M83 29c-5.33301 101.333 -12.333 184.004 -21 248.004c130.667 -59.333 249.334 -89 356.001 -89c42.667 0 82.5 6.5 119.5 19.5s64.333 31.333 82 55s26.5 50.167 26.5 79.5c0 22.667 -4 43 -12 61c-12 24.667 -32 50.334 -60 77.001
c-38.667 36.667 -107.667 97 -207 181c-47.333 40.667 -80 69.667 -98 87c-40 38 -70.667 72.167 -92 102.5s-36.666 60.5 -45.999 90.5s-14 62 -14 96c0 62.667 17.5 121.5 52.5 176.5s87.333 98 157 129s157.5 46.5 263.5 46.5c95.333 0 202.666 -11.667 321.999 -35
c3.33301 -69.333 10 -148.666 20 -237.999c-104 40 -200 60 -288 60c-65.333 0 -118.833 -14.833 -160.5 -44.5s-62.5 -64.167 -62.5 -103.5c0 -10.667 1.33301 -21.834 4 -33.501s6.66699 -23 12 -34s14.833 -25.333 28.5 -43s33.667 -38.334 60 -62.001
s48.833 -42.834 67.5 -57.501l139 -112c31.333 -26 59.333 -51.333 84 -76s45.834 -48.334 63.501 -71.001s31.5 -44.334 41.5 -65.001s17.5 -41.834 22.5 -63.501s7.5 -44.5 7.5 -68.5c0 -56 -13 -108.833 -39 -158.5s-63.333 -90.5 -112 -122.5s-102 -54.167 -160 -66.5
s-119.333 -18.5 -184 -18.5c-42.667 0 -92.334 3.66699 -149.001 11s-131.334 21.333 -224.001 42zM862 1732c-41.333 -75.333 -80.667 -151.668 -118 -229.001c-58.667 1.33301 -112.334 2 -161.001 2c-31.333 0 -81.333 -0.666992 -150 -2l-13 32
c-6 14.667 -17 38.334 -33 71.001l-60 126c30 -0.666992 58.667 -1 86 -1c22.667 0 50.334 0.333008 83.001 1l91 -130l100 130c26.667 -0.666992 54.667 -1 84 -1c34.667 0 65 0.333008 91 1z" />
    <glyph glyph-name="scaron" unicode="&#x161;" horiz-adv-x="898" 
d="M73 19l-22.002 220.002c65.333 -26.667 120.666 -45.167 165.999 -55.5s87 -15.5 125 -15.5s70 4.5 96 13.5s45.333 22.333 58 40s19 36.167 19 55.5c0 8.66699 -0.833008 16.667 -2.5 24s-4.66699 15 -9 23s-9.33301 15.5 -15 22.5s-13.5 15 -23.5 24
s-24.333 20.5 -43 34.5l-54 43c-52 40.667 -91.667 72.667 -119 96s-50.333 47.166 -69 71.499s-32.834 50 -42.501 77s-14.5 54.5 -14.5 82.5c0 48.667 14.833 95 44.5 139s72.834 76.167 129.501 96.5s123.334 30.5 200.001 30.5c87.333 0 188 -10.333 302 -31l13 -209
c-77.333 31.333 -151.666 47 -222.999 47c-38.667 0 -72.5 -3.83301 -101.5 -11.5s-49.833 -19.334 -62.5 -35.001s-19 -33.167 -19 -52.5c0 -11.333 2 -22.5 6 -33.5s11 -22.5 21 -34.5s21.5 -23.333 34.5 -34s40.167 -31.667 81.5 -63l108.5 -85
c31 -25.333 56.5 -50.833 76.5 -76.5s35.333 -53.167 46 -82.5s16 -59 16 -89c0 -50 -15.333 -96.333 -46 -139s-77 -76 -139 -100s-131.333 -36 -208 -36c-40 0 -88.667 3.16699 -146 9.5s-118.666 17.5 -183.999 33.5zM771.998 1390
c-41.333 -75.333 -80.667 -151.668 -118 -229.001c-58.667 1.33301 -112.334 2 -161.001 2c-31.333 0 -81.333 -0.666992 -150 -2l-13 32c-6 14.667 -17 38.334 -33 71.001l-60 126c30 -0.666992 58.667 -1 86 -1c22.667 0 50.334 0.333008 83.001 1l91 -130l100 130
c26.667 -0.666992 54.667 -1 84 -1c34.667 0 65 0.333008 91 1z" />
    <glyph glyph-name="Ydieresis" unicode="&#x178;" horiz-adv-x="1201" 
d="M395 0c8 74 16.168 170.666 24.501 289.999s13.166 214.333 14.499 285l-448 790c75.333 -1.33301 134 -2 176 -2c40 0 93.333 0.666992 160 2c30 -69.333 73.667 -157.166 131 -263.499s106.666 -203.833 147.999 -292.5l297 480l44 76c64.667 -1.33301 122 -2 172 -2
c26 0 79.667 0.666992 161 2l-546 -811l-12 -253c-4 -74.667 -7 -175 -9 -301c-71.333 1.33301 -123.333 2 -156 2c-33.333 0 -85.666 -0.666992 -156.999 -2zM712.001 1538l9.00098 162c44 -1.33301 78.667 -2 104 -2s58.666 0.666992 99.999 2l-6 -162
c-40 1.33301 -73 2 -99 2c-22.667 0 -58.667 -0.666992 -108 -2zM374.002 1538l8.00098 162c44.667 -1.33301 79.667 -2 105 -2s58.666 0.666992 99.999 2c-1.33301 -14 -3.33301 -68 -6 -162c-40 1.33301 -73 2 -99 2c-22.667 0 -58.667 -0.666992 -108 -2z" />
    <glyph glyph-name="Zcaron" unicode="&#x17d;" horiz-adv-x="1268" 
d="M45 0c6 90.667 9.32812 165.999 9.99512 225.999l47 52c2 2 30.333 36 85 102l490 587l155 192l-66 1h-25l-87 1h-152c-125.333 0 -247.666 -3.66699 -366.999 -11c4 52 6 108 6 168c0 11.333 -0.333008 27 -1 47c174 -1.33301 358.667 -2 554 -2l334 1l182 1
c-5.33301 -72.667 -8.66602 -147 -9.99902 -223l-68 -75c-13.333 -14.667 -26.333 -30 -39 -46l-357 -437l-313 -374l80 -1c225.333 0 370.333 0.666992 435 2s135.334 4.33301 212.001 9c-5.33301 -93.333 -8.66602 -166.666 -9.99902 -219.999
c-191.333 1.33301 -366.666 2 -525.999 2l-369 -1zM954.995 1732c-41.333 -75.333 -80.667 -151.668 -118 -229.001c-58.667 1.33301 -112.334 2 -161.001 2c-31.333 0 -81.333 -0.666992 -150 -2l-13 32c-6 14.667 -17 38.334 -33 71.001l-60 126
c30 -0.666992 58.667 -1 86 -1c22.667 0 50.334 0.333008 83.001 1l91 -130l100 130c26.667 -0.666992 54.667 -1 84 -1c34.667 0 65 0.333008 91 1z" />
    <glyph glyph-name="zcaron" unicode="&#x17e;" horiz-adv-x="988" 
d="M48 0c2.66699 65.333 4.66797 139 6.00098 221c26 26 43 44 51 54l489 552h-52c-88.667 0 -166.5 -1 -233.5 -3s-132.5 -5 -196.5 -9c4.66699 64 7 131.333 7 202c116 -1.33301 224.667 -2 326 -2c183.333 0 339 0.666992 467 2
c-2.66699 -28 -6.33398 -105.667 -11.001 -233l-499 -555l-34 -35c66.667 -2.66699 122.667 -4 168 -4c98 0 165.5 0.5 202.5 1.5s82.5 2.83301 136.5 5.5c-5.33301 -50 -10 -115.667 -14 -197c-117.333 1.33301 -250 2 -398 2c-158 0 -296.333 -0.666992 -415 -2z
M796.001 1390c-41.333 -75.333 -80.667 -151.668 -118 -229.001c-58.667 1.33301 -112.334 2 -161.001 2c-31.333 0 -81.333 -0.666992 -150 -2l-13 32c-6 14.667 -17 38.334 -33 71.001l-60 126c30 -0.666992 58.667 -1 86 -1c22.667 0 50.334 0.333008 83.001 1l91 -130
l100 130c26.667 -0.666992 54.667 -1 84 -1c34.667 0 65 0.333008 91 1z" />
    <glyph glyph-name="florin" unicode="&#x192;" 
d="M804 1079l56.9971 -0.00195312c96 0 165.667 1.33301 209 4c-4.66699 -15.333 -12.834 -48 -24.501 -98s-18.5 -82.333 -20.5 -97c-55.333 2.66699 -123.666 4 -204.999 4l-55 -1l-134 -691c-14.667 -73.333 -27 -128.333 -37 -165
c-16 -60.667 -33.167 -108.5 -51.5 -143.5s-41.5 -64 -69.5 -87s-60.667 -40.833 -98 -53.5c-46.667 -16 -95.667 -24 -147 -24c-70.667 0 -144.334 11.667 -221.001 35c14.667 58.667 25.667 118 33 178c38 -13.333 66.167 -21.666 84.5 -24.999s35.5 -5 51.5 -5
c21.333 0 40.833 2.66699 58.5 8s33.834 13.5 48.501 24.5s27.167 24.333 37.5 40s19.166 34.5 26.499 56.5c4.66699 13.333 10.334 36 17.001 68c10 43.333 20 93.666 30 150.999l115 633h-18c-45.333 0 -84.666 -1 -117.999 -3c16.667 66 29.334 131 38.001 195
c9.33301 -1.33301 54.666 -2.33301 135.999 -3c10 52.667 19.333 97.334 28 134.001s19.167 69.5 31.5 98.5s29.333 55.667 51 80s45.834 44.333 72.501 60s58.667 27.834 96 36.501s77.333 13 120 13c72 0 152.667 -13 242 -39c-12 -49.333 -20.667 -108 -26 -176
c-63.333 20.667 -116.666 31 -159.999 31c-21.333 0 -40.5 -2.16699 -57.5 -6.5s-31.833 -10.833 -44.5 -19.5s-24.5 -20.167 -35.5 -34.5s-19.5 -29.166 -25.5 -44.499s-11.5 -32.833 -16.5 -52.5s-11.167 -46.834 -18.5 -81.501z" />
    <glyph glyph-name="circumflex" unicode="&#x2c6;" horiz-adv-x="1024" 
d="M274 1161c41.333 76 80.667 152.332 118 228.999c58.667 -0.666992 112.334 -1 161.001 -1c31.333 0 81.333 0.333008 150 1c29.333 -69.333 64.666 -145.666 105.999 -228.999c-35.333 1.33301 -64 2 -86 2c-15.333 0 -43 -0.666992 -83 -2l-91 131l-100 -131
c-26.667 1.33301 -54.667 2 -84 2c-34 0 -64.333 -0.666992 -91 -2z" />
    <glyph glyph-name="caron" unicode="&#x2c7;" horiz-adv-x="1024" 
d="M815 1390c-41.333 -75.333 -80.667 -151.668 -118 -229.001c-58.667 1.33301 -112.334 2 -161.001 2c-31.333 0 -81.333 -0.666992 -150 -2l-13 32c-6 14.667 -17 38.334 -33 71.001l-60 126c30 -0.666992 58.667 -1 86 -1c22.667 0 50.334 0.333008 83.001 1l91 -130
l100 130c26.667 -0.666992 54.667 -1 84 -1c34.667 0 65 0.333008 91 1z" />
    <glyph glyph-name="macron" unicode="&#x2c9;" horiz-adv-x="1024" 
d="M256 1204c3.33301 46 5.33301 89.333 6 130l77 -3c14.667 -0.666992 44.667 -1.16699 90 -1.5s86.666 -0.5 123.999 -0.5c87.333 0 144.333 0.333008 171 1s62.667 2 108 4c-0.666992 -19.333 -1.66699 -38 -3 -56s-2.66602 -42.667 -3.99902 -74l-281 2z" />
    <glyph glyph-name="breve" unicode="&#x2d8;" horiz-adv-x="1024" 
d="M283 1390c22.667 -1.33301 41.6641 -1.99707 56.9971 -1.99707s34 0.666992 56 2c8 -23.333 15.833 -40.5 23.5 -51.5s17.334 -20.333 29.001 -28s26.167 -13.834 43.5 -18.501s36 -7 56 -7s38.667 2.33301 56 7s31.833 11 43.5 19s21.334 17.5 29.001 28.5
s15.5 27.833 23.5 50.5c22.667 -1.33301 41.334 -2 56.001 -2c16 0 35 0.666992 57 2c-0.666992 -19.333 -2.16699 -36 -4.5 -50s-8 -30.667 -17 -50s-21.167 -37.5 -36.5 -54.5s-32.833 -31 -52.5 -42s-42.5 -19.667 -68.5 -26s-54.667 -9.5 -86 -9.5
c-30.667 0 -59.167 3.16699 -85.5 9.5s-49.5 15.166 -69.5 26.499s-37.5 25.333 -52.5 42s-27 34.5 -36 53.5s-14.833 35.667 -17.5 50s-4 31.166 -4 50.499z" />
    <glyph glyph-name="dotaccent" unicode="&#x2d9;" horiz-adv-x="1024" 
d="M432 1192l6.99902 126l2 44c50.667 -1.33301 87.334 -2 110.001 -2c22 0 56.667 0.666992 104 2l-6 -170c-37.333 1.33301 -72 2 -104 2c-29.333 0 -67 -0.666992 -113 -2z" />
    <glyph glyph-name="ring" unicode="&#x2da;" horiz-adv-x="1024" 
d="M755 1335c0 -34 -8.5 -65.833 -25.5 -95.5s-40.5 -53.167 -70.5 -70.5s-62 -26 -96 -26s-66 8.66699 -96 26s-53.5 40.833 -70.5 70.5s-25.5 61.5 -25.5 95.5s8.5 65.833 25.5 95.5s40.5 53.167 70.5 70.5s62 26 96 26s66 -8.66699 96 -26s53.5 -40.833 70.5 -70.5
s25.5 -61.5 25.5 -95.5zM649 1333c0 24 -8.5 44.333 -25.5 61s-37.167 25 -60.5 25s-43.5 -8.33301 -60.5 -25s-25.5 -37 -25.5 -61s8.5 -44.5 25.5 -61.5s37.167 -25.5 60.5 -25.5s43.5 8.5 60.5 25.5s25.5 37.5 25.5 61.5z" />
    <glyph glyph-name="ogonek" unicode="&#x2db;" horiz-adv-x="1024" 
d="M673 5h129.999c-53.333 -43.333 -80 -88.333 -80 -135c0 -22.667 8 -42.667 24 -60s39.333 -26 70 -26c30 0 62 5 96 15c-9.33301 -33.333 -16.666 -71.333 -21.999 -114c-43.333 -11.333 -84.333 -17 -123 -17c-60 0 -106.167 15.833 -138.5 47.5
s-48.5 70.167 -48.5 115.5c0 26.667 6.66699 53.667 20 81s37.333 58.333 72 93z" />
    <glyph glyph-name="tilde" unicode="&#x2dc;" horiz-adv-x="1024" 
d="M270 1171c0.666992 52 6.49512 95.335 17.4951 130.002s26.5 59.167 46.5 73.5s42.667 21.5 68 21.5c8.66699 0 17.667 -0.833008 27 -2.5s18.666 -4.33398 27.999 -8.00098s17.5 -7.5 24.5 -11.5s20.5 -12.333 40.5 -25l52 -33c12 -7.33301 23.333 -13.666 34 -18.999
s21.667 -8 33 -8c8.66699 0 16.5 1.66699 23.5 5s12.833 8.83301 17.5 16.5s7.83398 16.167 9.50098 25.5s3.5 23 5.5 41c28 -1.33301 49 -2 63 -2s35.667 0.666992 65 2c0 -45.333 -4.5 -83.666 -13.5 -114.999s-23.5 -57.5 -43.5 -78.5s-47 -31.5 -81 -31.5
c-12.667 0 -25.167 1.66699 -37.5 5s-25.166 8.66602 -38.499 15.999s-36.666 21.666 -69.999 42.999s-55.333 34.333 -66 39s-21 7 -31 7c-11.333 0 -21.166 -3.66699 -29.499 -11s-13.666 -16.333 -15.999 -27s-4.16602 -28.334 -5.49902 -53.001c-26 1.33301 -47 2 -63 2
s-36 -0.666992 -60 -2z" />
    <glyph glyph-name="hungarumlaut" unicode="&#x2dd;" horiz-adv-x="1024" 
d="M593 1161l63.001 166l25 70c45.333 -1.33301 87 -2 125 -2c42.667 0 85 0.666992 127 2l-100 -136l-69 -100c-26 1.33301 -55.333 2 -88 2c-20.667 0 -48.334 -0.666992 -83.001 -2zM268.001 1161l88 236c44.667 -1.33301 86.334 -2 125.001 -2c42 0 84 0.666992 126 2
l-110 -151l-58 -85c-26.667 1.33301 -56 2 -88 2c-20.667 0 -48.334 -0.666992 -83.001 -2z" />
    <glyph glyph-name="pi" unicode="&#x3c0;" horiz-adv-x="1231" 
d="M192 0v797h-149v184h1146v-184h-149v-797h-230v797h-387v-797h-231z" />
    <glyph glyph-name="endash" unicode="&#x2013;" 
d="M73 428c6 64.667 9.66699 132 11 202c197.333 -2.66699 378 -4 542 -4s345 1.33301 543 4c-6.66699 -72.667 -10.667 -140 -12 -202c-196.667 3.33301 -377 5 -541 5s-345 -1.66699 -543 -5z" />
    <glyph glyph-name="emdash" unicode="&#x2014;" horiz-adv-x="1582" 
d="M-3 428c5.33301 82 8.33203 149.332 8.99902 201.999l428 -3l362 -1l790 4c-5.33301 -93.333 -8.66602 -160.666 -9.99902 -201.999l-788 5z" />
    <glyph glyph-name="quoteleft" unicode="&#x2018;" horiz-adv-x="447" 
d="M85 1004l71 118l59 96l85 147l71 -2c10.667 0 34.334 0.666992 71.001 2l-50 -150c-22.667 -66.667 -45.334 -137 -68.001 -211c-56.667 1.33301 -93.667 2 -111 2c-26 0 -68.667 -0.666992 -128 -2z" />
    <glyph glyph-name="quoteright" unicode="&#x2019;" horiz-adv-x="467" 
d="M449 1365l-71.499 -118.001c-25.667 -41.333 -45.5 -74.333 -59.5 -99l-84 -144l-71 2c-10.667 0 -34.334 -0.666992 -71.001 -2l53 158c20 58.667 41.667 126.334 65 203.001l111 -2c12 0 54.667 0.666992 128 2z" />
    <glyph glyph-name="quotesinglbase" unicode="&#x201a;" horiz-adv-x="467" 
d="M364 190l-69.999 -117l-145 -245l-71 2c-10.667 0 -34.334 -0.666992 -71.001 -2l53 159c20 58 41.667 125.667 65 203c56.667 -2 93.667 -3 111 -3c26 0 68.667 1 128 3z" />
    <glyph glyph-name="quotedblleft" unicode="&#x201c;" horiz-adv-x="809" 
d="M447 1004l70.999 116l145 245l70 -2c10.667 0 34.334 0.666992 71.001 2c-52.667 -156.667 -92 -277 -118 -361c-56 1.33301 -93 2 -111 2c-25.333 0 -68 -0.666992 -128 -2zM84.999 1004l71 118l59 96l85 147l71 -2c10.667 0 34.334 0.666992 71.001 2l-50 -150
c-22.667 -66.667 -45.334 -137 -68.001 -211c-56.667 1.33301 -93.667 2 -111 2c-26 0 -68.667 -0.666992 -128 -2z" />
    <glyph glyph-name="quotedblright" unicode="&#x201d;" horiz-adv-x="829" 
d="M811 1365l-70.999 -117l-144 -244l-71 2c-10.667 0 -34.334 -0.666992 -71.001 -2l47 138l71 223l111 -2c12 0 54.667 0.666992 128 2zM449.001 1365l-71.499 -118.001c-25.667 -41.333 -45.5 -74.333 -59.5 -99l-84 -144l-71 2c-10.667 0 -34.334 -0.666992 -71.001 -2
l53 158c20 58.667 41.667 126.334 65 203.001l111 -2c12 0 54.667 0.666992 128 2z" />
    <glyph glyph-name="quotedblbase" unicode="&#x201e;" horiz-adv-x="795" 
d="M364 190l-69.999 -117l-145 -245l-71 2c-10.667 0 -34.334 -0.666992 -71.001 -2l53 159c20 58 41.667 125.667 65 203c56.667 -2 93.667 -3 111 -3c26 0 68.667 1 128 3zM726.001 190c-20.667 -36.667 -43.999 -75.667 -69.999 -117l-145 -245l-71 2
c-10.667 0 -34.334 -0.666992 -71.001 -2l53 159c20 58 41.667 125.667 65 203c56.667 -2 93.667 -3 111 -3c26 0 68.667 1 128 3z" />
    <glyph glyph-name="dagger" unicode="&#x2020;" horiz-adv-x="1164" 
d="M742 919l126.001 -0.000976562l224 4c-6 -69.333 -9.33301 -137.666 -10 -204.999l-196 3l-154 1l-49 -1181c-46.667 1.33301 -90 2 -130 2c-40.667 0 -84.334 -0.666992 -131.001 -2l44 939l9 242l-147 -1l-91 -1l-114 -2c6 62 9.66699 130.333 11 205
c178 -2.66699 295 -4 351 -4l17 446c35.333 -1.33301 79 -2 131 -2s95.667 0.666992 131 2z" />
    <glyph glyph-name="daggerdbl" unicode="&#x2021;" horiz-adv-x="1164" 
d="M742 919h124.999l225 4c-6 -70 -9.66699 -138.333 -11 -205l-195 3l-155 1l-21 -521l121 1l232 3c-2.66699 -26.667 -5 -61.167 -7 -103.5s-3 -75.833 -3 -100.5l-202 3l-151 1l-17 -464c-47.333 1.33301 -91 2 -131 2s-83.333 -0.666992 -130 -2l22 463h-145l-91 -2
l-114 -1c6.66699 70.667 10.334 138.667 11.001 204l197 -3l152 -1c2.66699 50 5.66699 122 9 216l12 305l-148 -1l-90 -1l-114 -2c6 62 9.33301 130.333 10 205c178 -2.66699 295 -4 351 -4l17 446c35.333 -1.33301 79 -2 131 -2c52.667 0 96.667 0.666992 132 2z" />
    <glyph glyph-name="bullet" unicode="&#x2022;" horiz-adv-x="1365" 
d="M964 696c0 -50.667 -12.499 -98.3359 -37.499 -143.003s-59.5 -79.667 -103.5 -105s-90.667 -38 -140 -38c-50 0 -96.833 12.833 -140.5 38.5s-78.167 60.834 -103.5 105.501s-38 92 -38 142c0 50.667 12.5 98.167 37.5 142.5s59.5 79.333 103.5 105
s91.667 38.5 143 38.5c48.667 0 94.667 -12.667 138 -38s77.666 -60.166 102.999 -104.499s38 -92.166 38 -143.499z" />
    <glyph glyph-name="ellipsis" unicode="&#x2026;" horiz-adv-x="1591" 
d="M106 0c2.66699 48 6.33301 137.667 11 269l152 -2c13.333 0 57 0.666992 131 2c-3.33301 -48.667 -6 -97.667 -8 -147l-6 -122l-131 2c-5.33301 0 -55 -0.666992 -149 -2zM635.999 0c2.66699 48 6.33301 137.667 11 269l152 -2c14 0 58 0.666992 132 2
c-3.33301 -38 -6.33301 -87.333 -9 -148l-5 -121l-132 2c-5.33301 0 -55 -0.666992 -149 -2zM1167 0c2.66699 48 6.33301 137.667 11 269l151 -2c14 0 58 0.666992 132 2c-3.33301 -35.333 -8 -125 -14 -269l-131 2c-6 0 -55.667 -0.666992 -149 -2z" />
    <glyph glyph-name="perthousand" unicode="&#x2030;" horiz-adv-x="2522" 
d="M403 1380c64.667 0 120.334 -15.668 167.001 -47.001s82.167 -77.166 106.5 -137.499s36.5 -131.833 36.5 -214.5c0 -94.667 -14.667 -181.167 -44 -259.5s-70.333 -134.333 -123 -168s-113.334 -50.5 -182.001 -50.5c-49.333 0 -95 9.16699 -137 27.5
s-76.333 46 -103 83s-46 80 -58 129s-18 99.833 -18 152.5c0 88.667 14.333 174 43 256s70.667 140.667 126 176s117.333 53 186 53zM394 1240c-31.333 0 -59.832 -13.668 -85.499 -41.001s-45.334 -69 -59.001 -125s-20.5 -117.333 -20.5 -184
c0 -85.333 12.667 -148.166 38 -188.499s58.666 -60.5 99.999 -60.5c16 0 31.167 3.16699 45.5 9.5s28.833 18.333 43.5 36s28.167 42.667 40.5 75s21.333 68 27 107s8.5 79.167 8.5 120.5c0 83.333 -13.167 146 -39.5 188s-59.166 63 -98.499 63zM405.001 -0.00195312
l397.001 695l374 670c29.333 -1.33301 57.666 -2 84.999 -2c24 0 51.667 0.666992 83 2l-274 -477l-413 -739l-78 -149c-30 1.33301 -57.333 2 -82 2c-20 0 -50.667 -0.666992 -92 -2zM1387 860.998c64.667 0 119.668 -14.168 165.001 -42.501s81.166 -72 107.499 -131
s39.5 -132.167 39.5 -219.5c0 -62 -6.83301 -124 -20.5 -186s-35.5 -116.667 -65.5 -164s-67.833 -81.333 -113.5 -102s-95.834 -31 -150.501 -31c-66.667 0 -123.167 14.5 -169.5 43.5s-82.166 72.833 -107.499 131.5s-38 131.334 -38 218.001
c0 90.667 14.667 176.5 44 257.5s71.333 138.833 126 173.5s115.667 52 183 52zM1381 720.997c-34.667 0 -64.499 -14.8311 -89.499 -44.498s-43.833 -71.334 -56.5 -125.001s-19 -113.167 -19 -178.5c0 -60.667 5.66699 -108.334 17 -143.001s27.5 -61.167 48.5 -79.5
s45.167 -27.5 72.5 -27.5c16 0 31 3 45 9s28.333 17.667 43 35s28.167 42.333 40.5 75s21.166 68.5 26.499 107.5s8 79.167 8 120.5c0 83.333 -12.333 146 -37 188s-57.667 63 -99 63zM2167 860.999c64.667 0 119.665 -14.168 164.998 -42.501s81.166 -72 107.5 -131
c26.333 -59 39.5 -132.167 39.5 -219.5c0 -62 -6.83301 -124 -20.5 -186s-35.667 -116.667 -66 -164s-68.166 -81.333 -113.499 -102s-95.333 -31 -150 -31c-66.667 0 -123.167 14.5 -169.5 43.5s-82.166 72.833 -107.499 131.5s-38 131.334 -38 218.001
c0 90.667 14.5 176.5 43.5 257.5s71 138.833 126 173.5s116.167 52 183.5 52zM2161 720.998c-34.667 0 -64.5 -14.501 -89.5 -43.501s-43.833 -70.667 -56.5 -125s-19 -114.166 -19 -179.499c0 -59.333 5.5 -106.5 16.5 -141.5s27 -61.833 48 -80.5s45.5 -28 73.5 -28
c16 0 31 3 45 9s28.333 17.667 43 35s28.167 42.333 40.5 75s21.166 68.5 26.5 107.5c5.33301 39 8 79.167 8 120.5c0 83.333 -12.333 146 -37 188s-57.667 63 -99 63z" />
    <glyph glyph-name="quilsinglleft" unicode="&#x2039;" horiz-adv-x="597" 
d="M474 877l-130 -280l-28 -67l85 -233l45 -114c-38 1.33301 -70.333 2 -97 2c-26 0 -56 -0.666992 -90 -2l-29 59c-8 17.333 -21.667 44.333 -41 81l-49 94l-58 113l198 347c39.333 -1.33301 70.333 -2 93 -2c26 0 59.667 0.666992 101 2z" />
    <glyph glyph-name="quilsinglright" unicode="&#x203a;" horiz-adv-x="599" 
d="M115 877c42.667 -1.33301 76.333 -1.99902 101 -1.99902c24 0 55 0.666992 93 2c61.333 -134.667 117 -250.334 167 -347.001l-101.5 -168.5c-41.667 -67.667 -76.834 -127.167 -105.501 -178.5c-36 1.33301 -66 2 -90 2c-28.667 0 -61 -0.666992 -97 -2l106 222
c14 30.667 32 72.334 54 125.001l-18 55c-5.33301 15.333 -18.666 51.666 -39.999 108.999z" />
    <glyph glyph-name="Euro" unicode="&#x20ac;" horiz-adv-x="1296" 
d="M1260 1116c-125.333 38.667 -228.001 58 -308.001 58c-106 0 -201.5 -22.333 -286.5 -67s-150.5 -108.667 -196.5 -192h725l-39 -170h-743c-4 -28.667 -6 -58.667 -6 -90v-34h722l-38 -170h-646c36.667 -84 94.334 -148 173.001 -192s172 -66 280 -66
c92 0 205.333 19.667 340 59l-37 -240c-137.333 -24.667 -254.666 -37 -351.999 -37c-178.667 0 -331.334 41.167 -458.001 123.5s-209.667 199.833 -249 352.5h-133l39 170h72v18c0 36 2 71.333 6 106h-117l39 170h113c50 154 140.667 271.833 272 353.5
s291 122.5 479 122.5c92.667 0 204.667 -13 336 -39z" />
    <glyph glyph-name="trademark" unicode="&#x2122;" horiz-adv-x="1789" 
d="M764 587c7.33301 56 12.668 100.333 16.001 133c7.33301 70 17.666 189 30.999 357l20 288c47.333 -1.33301 90.333 -2 129 -2c29.333 0 68.666 0.666992 117.999 2c7.33301 -38 14.166 -68 20.499 -90s18.333 -59.667 36 -113l56.5 -178.5
c20 -65.667 35 -118.5 45 -158.5l58.5 151l63.5 155c38 88 60.833 143.167 68.5 165.5l22.5 68.5c42.667 -1.33301 85.334 -2 128.001 -2c37.333 0 78.333 0.666992 123 2c-5.33301 -113.333 -9.16602 -234.5 -11.499 -363.5s-3.5 -224.5 -3.5 -286.5
c0 -33.333 0.333008 -76 1 -128c-35.333 0.666992 -64.333 1 -87 1c-28.667 0 -58 -0.333008 -88 -1l5 83l11 490l-10 -32c-3.33301 -9.33301 -15.666 -40 -36.999 -92l-175 -449c-34.667 0.666992 -62.334 1 -83.001 1c-25.333 0 -54.666 -0.333008 -87.999 -1
c-52.667 191.333 -92.5 328.833 -119.5 412.5s-42.833 135.5 -47.5 155.5c-4 -32 -8.66699 -90 -14 -174l-14 -213c-4 -58.667 -6.33301 -119 -7 -181c-36.667 0.666992 -64.334 1 -83.001 1c-22.667 0 -51 -0.333008 -85 -1zM265.002 587
c16.667 190.667 27.666 405.333 32.999 644c-68 -0.666992 -150 -2.66699 -246 -6c2.66699 48 4.33398 94.667 5.00098 140c104 -1.33301 222.667 -2 356 -2c142 0 250.667 0.666992 326 2c-3.33301 -56 -5 -102.333 -5 -139c-77.333 4 -147 6 -209 6h-36l-13 -225l-10 -286
c-0.666992 -33.333 -1 -78 -1 -134c-41.333 0.666992 -73.333 1 -96 1c-26 0 -60.667 -0.333008 -104 -1z" />
    <glyph glyph-name="Omega" unicode="&#x2126;" horiz-adv-x="1365" 
d="M57 0l0.00195312 212.998h315c-30.667 18.667 -56.334 35.5 -77.001 50.5s-44.5 35.667 -71.5 62s-51 54.666 -72 84.999s-38.833 63.333 -53.5 99s-26 74 -34 115s-12 83.5 -12 127.5c0 116.667 27.333 223.834 82 321.501s129.667 176.334 225 236.001
s203.333 89.5 324 89.5c118.667 0 225.667 -29.333 321 -88s170.666 -137.167 225.999 -235.5s83 -206.166 83 -323.499c0 -44 -4 -86.5 -12 -127.5s-19.333 -79.333 -34 -115s-32.667 -68.834 -54 -99.501s-45.166 -59 -71.499 -85s-49.833 -46.333 -70.5 -61
s-46.667 -31.667 -78 -51h315v-213h-545v196c34 18.667 61 35.334 81 50.001c31.333 23.333 59.666 50.333 84.999 81c30.667 37.333 56.667 77.666 78 120.999s36.166 85.5 44.499 126.5s12.5 85.833 12.5 134.5c0 101.333 -19.5 187 -58.5 257s-85.667 123.833 -140 161.5
s-115.166 56.5 -182.499 56.5s-128.833 -19.167 -184.5 -57.5s-102.5 -92.666 -140.5 -162.999s-57 -154.5 -57 -252.5c0 -114.667 25.5 -216.5 76.5 -305.5s125.833 -158.833 224.5 -209.5v-196h-545z" />
    <glyph glyph-name="partialdiff" unicode="&#x2202;" horiz-adv-x="1024" 
d="M142 1173l28.0039 192.002c139.333 -16 255.833 -44.833 349.5 -86.5s175.667 -100.334 246 -176.001s123 -162.334 158 -260.001s52.5 -205.5 52.5 -323.5c0 -59.333 -5.33301 -115.833 -16 -169.5s-30.334 -104.167 -59.001 -151.5s-63.667 -87.5 -105 -120.5
s-86.333 -57.333 -135 -73s-98.667 -23.5 -150 -23.5c-84 0 -161.667 19.833 -233 59.5s-127.5 95.667 -168.5 168s-61.5 150.833 -61.5 235.5c0 78 18.167 152.167 54.5 222.5s87.166 124.666 152.499 162.999s134.666 57.5 207.999 57.5c40 0 77.667 -5 113 -15
s61.666 -20.833 78.999 -32.5s43.666 -34.167 78.999 -67.5l-67 127c-8 14 -17.667 28 -29 42c-18.667 22.667 -38.667 43.667 -60 63c-17.333 16 -33.333 29 -48 39c-18.667 12.667 -43.667 26.334 -75 41.001c-38 18 -74.667 33.333 -110 46c-26.667 10 -54 18 -82 24
c-31.333 6.66699 -71.666 13 -120.999 19zM753.004 444.002c0 47.333 -9.83105 91.5 -29.498 132.5s-48.834 72.833 -87.501 95.5s-79.667 34 -123 34c-34 0 -71.667 -10.5 -113 -31.5s-73.666 -53.667 -96.999 -98s-35 -90.5 -35 -138.5c0 -46.667 11 -91 33 -133
s52.167 -74.5 90.5 -97.5s78.166 -34.5 119.499 -34.5s81.666 12 120.999 36s69.333 56.833 90 98.5s31 87.167 31 136.5z" />
    <glyph glyph-name="increment" unicode="&#x2206;" horiz-adv-x="1372" 
d="M46 0l511 1365h254l514 -1365h-1279zM362 213h641l-317 891z" />
    <glyph glyph-name="product" unicode="&#x220f;" horiz-adv-x="1374" 
d="M47 1536h1280v-199h-150v-1650h150v-199h-515v199h143v1650h-536v-1650h140v-199h-512v199h152v1650h-152v199z" />
    <glyph glyph-name="summation" unicode="&#x2211;" horiz-adv-x="1365" 
d="M1256 1536v-503h-222l-26 278h-666l502 -764l-500 -835h683l15 284h232v-508h-1206v258l486 800l-486 733v257h1188z" />
    <glyph glyph-name="minus" unicode="&#x2212;" 
d="M113 794c190.667 -2.66699 365.335 -4 524.002 -4c160.667 0 335.667 1.33301 525 4c-4.66699 -47.333 -8.33398 -108 -11.001 -182c-196 3.33301 -370.667 5 -524 5s-328 -1.66699 -524 -5c5.33301 50 8.66602 110.667 9.99902 182z" />
    <glyph glyph-name="fraction" unicode="&#x2215;" horiz-adv-x="216" 
d="M-346 0l327 575l347 623l90 167c32.667 -1.33301 58 -2 76 -2c19.333 0 46 0.666992 80 2l-145 -251l-535 -963l-79 -151c-27.333 1.33301 -50 2 -68 2c-24.667 0 -55.667 -0.666992 -93 -2z" />
    <glyph glyph-name="periodcentered" unicode="&#x2219;" horiz-adv-x="319" 
d="M9 554c2.66699 48.667 6.66699 146 12 292l164 -3c18 0 65.667 1 143 3c-3.33301 -38 -8.33301 -135.333 -15 -292l-142 2c-9.33301 0 -63.333 -0.666992 -162 -2z" />
    <glyph glyph-name="radical" unicode="&#x221a;" horiz-adv-x="1365" 
d="M1365 1694v-205h-363l-402 -1489h-284l-140 554h-176v204h321l71 -258c4.66699 -17.333 12.667 -53.333 24 -108l20 -94c2 -8 5 -26.333 9 -55l85 385l78 279l212 787h545z" />
    <glyph glyph-name="infinity" unicode="&#x221e;" horiz-adv-x="1365" 
d="M687 579c-42 -59.333 -91.167 -107.832 -147.5 -145.499s-118.833 -56.5 -187.5 -56.5c-61.333 0 -116.666 14.5 -165.999 43.5s-86.5 67.833 -111.5 116.5s-37.5 102.334 -37.5 161.001c0 63.333 13.333 118 40 164s65 83 115 111s103.667 42 161 42
c39.333 0 76.5 -6.5 111.5 -19.5s72.333 -35.833 112 -68.5s73.834 -70.334 102.501 -113.001c42.667 62.667 92.334 111.834 149.001 147.501s118.667 53.5 186 53.5c61.333 0 116.666 -14.333 165.999 -43s86.5 -67.334 111.5 -116.001s37.5 -102.334 37.5 -161.001
c0 -62.667 -13.167 -117.5 -39.5 -164.5s-63.833 -84.333 -112.5 -112s-102.334 -41.5 -161.001 -41.5c-68.667 0 -130.834 18.667 -186.501 56s-103.167 86 -142.5 146zM771 696.001c37.333 -56.667 73.5 -97.668 108.5 -123.001s72.5 -38 112.5 -38
c43.333 0 80 15.333 110 46s45 69.334 45 116.001c0 48.667 -15.833 87.5 -47.5 116.5s-68.5 43.5 -110.5 43.5c-36.667 0 -72.667 -12.167 -108 -36.5s-72 -65.833 -110 -124.5zM595 696c-34.667 53.333 -69.833 93.499 -105.5 120.499s-74.167 40.5 -115.5 40.5
c-43.333 0 -80 -15.167 -110 -45.5s-45 -69.166 -45 -116.499c0 -48 15.667 -86.667 47 -116s68.333 -44 111 -44c37.333 0 73.5 12.333 108.5 37s71.5 66 109.5 124z" />
    <glyph glyph-name="integral" unicode="&#x222b;" horiz-adv-x="1024" 
d="M131 -491l44 229c20 -8.66699 36.5 -14.167 49.5 -16.5s25.167 -3.5 36.5 -3.5c20.667 0 39.334 3.83301 56.001 11.5s29.5 17.5 38.5 29.5s15.167 24.833 18.5 38.5s5.33301 33.167 6 58.5s1 71.333 1 138v991c0 127.333 1 204.333 3 231
c3.33301 48 10.666 88.333 21.999 121c10 28 25 54.667 45 80s43.167 46.666 69.5 63.999s57.166 30.833 92.499 40.5s75 14.5 119 14.5c20 0 41.333 -1.16699 64 -3.5s55 -8.16602 97 -17.499l-44 -229c-20 8.66699 -36.333 14.167 -49 16.5s-25 3.5 -37 3.5
c-22.667 0 -42 -3.66699 -58 -11s-29 -18.166 -39 -32.499s-16.5 -31.666 -19.5 -51.999s-4.5 -59.833 -4.5 -118.5v-1048v-193c-1.33301 -42.667 -6.16602 -82.834 -14.499 -120.501s-22 -71 -41 -100s-42.667 -53.333 -71 -73s-60.5 -34.834 -96.5 -45.501
c-46 -12.667 -98.333 -19 -157 -19c-58 0 -101.667 5.33301 -131 16z" />
    </font>
</defs>
</svg>
