<?xml version="1.0" standalone="no"?>
<!DOCTYPE svg PUBLIC "-//W3C//DTD SVG 1.1//EN" "http://www.w3.org/Graphics/SVG/1.1/DTD/svg11.dtd" >
<svg xmlns="http://www.w3.org/2000/svg">
<metadata>Generated by IcoMoon</metadata>
<defs>
<font id="fontIcon" horiz-adv-x="1024">
<font-face units-per-em="1024" ascent="960" descent="-64" />
<missing-glyph horiz-adv-x="1024" />
<glyph unicode="&#x20;" d="" horiz-adv-x="512" />
<glyph unicode="&#xe600;" d="M746.667-64h-640v832h640v-832zM682.667 704h-512v-704h512v704zM746.667 192h128v704h-512v-128h-64v192h640v-832h-192v64zM234.667 576h384v-64h-384v64zM234.667 448h384v-64h-384v64zM234.667 320h384v-64h-384v64zM234.667 192h384v-64h-384v64z" />
<glyph unicode="&#xe601;" d="M0-64l320 69.323-256 253.344zM128 312l248.448-250.219 460.427 458.667-251.125 250.219zM640 830.667l254.667-253.333 129.333 129.333-254.667 253.333z" />
<glyph unicode="&#xe602;" d="M1022.848 448c0-282.77-229.23-512-512-512s-512 229.23-512 512c0 282.77 229.23 512 512 512s512-229.23 512-512z" />
<glyph unicode="&#xe603;" d="M894.667 897.333h-254.667v62.667h-254.219l-0.448-62.667h-257.333v-193.333h766.667zM189.333 642.667h642.667v-706.667h-642.667v706.667z" />
<glyph unicode="&#xe604;" d="M1024 21.333c0-11.776-9.504-21.333-21.216-21.333h-981.557c-11.723 0-21.227 9.557-21.227 21.333l448 832c3.936 10.005 21.333 42.667 63.893 42.667h0.224c38.997 0 58.656-30.699 63.883-42.667l448-832zM576 636.448h-128v-320h128v320zM576 260.064h-128v-128h128v128z" />
<glyph unicode="&#xe605;" d="M2.923 455.851l120.267 121.547 260.811-260.789 515.541 515.541 127.381-124.693-635.563-643.605z" />
<glyph unicode="&#xe606;" d="M903.345 960l120.648-120.648-903.346-903.346-120.648 120.648 903.346 903.346zM0.155 839.195l120.648 120.648 903.346-903.346-120.648-120.648-903.346 903.346z" />
<glyph unicode="&#xe607;" d="M309.633 555.275l511.993-511.993-107.268-107.268-511.993 511.993 107.268 107.268zM202.371 447.998l511.986 511.986 107.253-107.253-511.986-511.986-107.253 107.253z" />
<glyph unicode="&#xe608;" d="M821.623 447.989l-511.993-511.993-107.26 107.26 511.993 511.993 107.26-107.26zM714.364 340.746l-511.986 511.986 107.253 107.253 511.986-511.986-107.253-107.253z" />
<glyph unicode="&#xe609;" d="M1024 448c0-282.773-229.227-512-512-512s-512 229.227-512 512 229.227 512 512 512 512-229.227 512-512zM700.096 247.349l104.352 504.757-640-312.448 535.648-192.309zM261.248 447.605l490.56 236.608-85.525-382.251-405.035 145.643zM423.2 389.365l55.168-19.829 147.147 140.597-43.776 20.309-158.539-141.077zM404.267 353.557v-237.024l153.355 181.899-33.152 11.968-72.021-80.245-3.211 107.264-44.971 16.139z" />
<glyph unicode="&#xe60a;" d="M1024 448c0-282.773-229.227-512-512-512s-512 229.227-512 512 229.227 512 512 512 512-229.227 512-512zM650.667 640h-373.333v-512h373.333v512zM608 170.667h-288v416h288v-416zM650.667 213.333h96v512h-373.333v-85.333h42.667v32h288v-416h-53.333v-42.667zM426.667 544h-53.333v-53.333h53.333v53.333zM554.667 544h-96v-53.333h96v53.333zM426.667 448h-53.333v-53.333h53.333v53.333zM554.667 448h-96v-53.333h96v53.333zM426.667 352h-53.333v-53.333h53.333v53.333zM554.667 352h-96v-53.333h96v53.333zM426.667 256h-53.333v-53.333h53.333v53.333zM554.667 256h-96v-53.333h96v53.333z" />
<glyph unicode="&#xe60b;" d="M1024 448c0-282.773-229.227-512-512-512s-512 229.227-512 512 229.227 512 512 512 512-229.227 512-512zM234.667 405.333h234.667v-234.667h85.333v234.667h234.667v85.333h-234.667v234.667h-85.333v-234.667h-234.667v-85.333z" />
<glyph unicode="&#xe60c;" d="M674.859 614.549l70.037-32.693-256.725-245.099-88.139 33.333zM0 459.264l839.968-307.691 184.032 807.637-1024-499.947zM797.333 238.891l-648 232.971 801.781 395.808-153.781-628.779zM597.547 267.061l-136.213-147.563 1.589 186.528-72.032 23.691v-394.507l267.776 317.824z" />
<glyph unicode="&#xe60d;" d="M0 554.667h1024v-213.333h-1024v213.333zM405.333 960h213.333v-1024h-213.333v1024z" />
<glyph unicode="&#xe60e;" d="M1024 320c0-29.461-23.872-53.333-53.333-53.333h-597.792l-234.208-284.128v284.128h-85.333c-29.451 0-53.333 23.872-53.333 53.333v544c0 29.451 23.883 53.333 53.333 53.333h917.333c29.461 0 53.333-23.883 53.333-53.333v-544z" />
<glyph unicode="&#xe60f;" d="M1024 448c0-282.773-229.227-512-512-512s-512 229.227-512 512 229.227 512 512 512 512-229.227 512-512zM746.667 677.109l-86.72 90.891h-382.613v-597.333h469.333v506.443zM693.333 213.333h-362.667v512h277.333v-96h85.333v-416zM650.667 586.667h-277.333v-42.667h277.333v42.667zM650.667 490.667h-277.333v-42.667h277.333v42.667zM608 394.667h-234.667v-42.667h234.667v42.667z" />
<glyph unicode="&#xe610;" d="M1024 448c0-282.763-229.227-512-512-512s-512 229.237-512 512c0 282.773 229.227 512 512 512s512-229.227 512-512zM693.333 725.333v-501.333h-405.333v501.333h234.667v53.333h-288v-608h512v608h-53.333v-53.333zM650.667 821.333h-85.333v-192h85.333v192zM522.667 682.667h-192v-53.333h192v53.333zM650.667 565.333h-320v-53.333h320v53.333zM650.667 448h-320v-53.333h320v53.333zM608 352h-96v-85.333h96v85.333z" />
<glyph unicode="&#xe611;" d="M1024 448c0-282.784-229.237-512-512-512-282.773 0-512 229.216-512 512 0 282.773 229.227 512 512 512 282.763 0 512-229.227 512-512zM832 309.333h-640v-42.667h640v42.667zM277.333 266.667h-42.667v-96h42.667v96zM789.333 266.667h-42.667v-96h42.667v96zM776.661 426.485l-30.176 30.176-147.328-147.328h60.352l117.152 117.152zM446.709 773.941c-40.021 0-72.459-32.448-72.459-72.459s32.448-72.459 72.459-72.459 72.459 32.448 72.459 72.459-32.437 72.459-72.459 72.459z" />
<glyph unicode="&#xe612;" d="M913.536 494.592l43.541-43.531-441.792-444.8c0 0-182.816-170.347-385.333 22.709 0 0-141.397 119.435-28.395 297.163 13.216 21.387 542.357 556.075 587.787 602.144 30.763 34.581 146.592 50.848 214.741-9.717 0 0 125.845-92.747 19.381-255.989-25.557-29.813-461.344-498.272-478.389-515.307-17.035-17.045-112.139-75.243-177.44 4.256-35.488 52.523-18.453 110.72 11.349 143.36 29.813 32.661 401.728 411.68 401.728 411.68l39.744-36.907-404.555-415.925c0 0-28.789-42.912 8.523-78.069s72.395 4.256 79.499 9.941c7.093 5.675 475.541 515.307 475.541 515.307s75.243 107.883-17.035 177.44c-68.117 54.037-126.347 15.616-147.637-5.675-21.291-21.301-533.739-542.283-562.133-577.771-28.395-35.477-73.813-166.080 45.429-251.253 96.523-56.779 185.963-88.011 308.032 35.488 100.779 99.36 407.413 415.456 407.413 415.456z" />
<glyph unicode="&#xe613;" d="M970.667-64h-874.667v1024h733.333l141.333-146.667v-877.333zM928 778.667h-160v138.667h-629.333v-928h789.333v789.333zM288 725.333h85.333v-85.333h-85.333v85.333zM469.333 725.333h234.667v-85.333h-234.667v85.333zM288 544h85.333v-85.333h-85.333v85.333zM469.333 544h362.667v-85.333h-362.667v85.333zM288 352h85.333v-85.333h-85.333v85.333zM469.333 352h362.667v-85.333h-362.667v85.333zM288 160h85.333v-85.333h-85.333v85.333zM469.333 160h362.667v-85.333h-362.667v85.333z" />
<glyph unicode="&#xe614;" d="M1024-10.667c0-29.461-23.872-53.333-53.333-53.333h-917.333c-29.451 0-53.333 23.872-53.333 53.333v917.333c0 29.451 23.883 53.333 53.333 53.333h917.333c29.461 0 53.333-23.883 53.333-53.333v-917.333zM970.667 853.333c0 29.451-23.872 53.333-53.333 53.333h-810.667c-29.451 0-53.333-23.883-53.333-53.333v-810.667c0-29.461 23.883-53.333 53.333-53.333h810.667c29.461 0 53.333 23.872 53.333 53.333v810.667zM224 821.333h96v-96h-96v96zM458.667 821.333h96v-96h-96v96zM693.333 821.333h96v-96h-96v96zM746.667 586.667h96v-96h-96v96zM554.667 586.667h96v-96h-96v96zM373.333 586.667h96v-96h-96v96zM746.667 405.333h96v-96h-96v96zM554.667 405.333h96v-96h-96v96zM373.333 405.333h96v-96h-96v96zM181.333 405.333h96v-96h-96v96zM746.667 213.333h96v-96h-96v96zM554.667 213.333h96v-96h-96v96zM373.333 213.333h96v-96h-96v96zM181.333 213.333h96v-96h-96v96z" />
<glyph unicode="&#xe615;" d="M206.112-64l1.109 1024 684.693-483.061z" />
<glyph unicode="&#xe616;" d="M1024 353.141v189.685h-200.171c-5.461 21.099-12.949 41.376-22.261 60.619l139.52 139.52-134.112 134.123-133.728-133.739c-20.768 12.395-43.019 22.539-66.421 30.165v186.475h-189.675v-182.037c-23.317-6.4-45.579-15.264-66.528-26.347l-126.080 130.56-136.437-131.765 127.328-131.84c-12.992-23.637-23.189-49.024-30.091-75.733h-185.344v-189.675h192.64c7.435-21.707 17.035-42.4 28.608-61.792l-138.357-138.357 134.133-134.123 144.139 144.149c17.824-8.629 36.565-15.627 56-20.96v-206.080h189.675v210.507c15.936 5.184 31.328 11.563 46.080 19.019l146.507-151.712 136.448 131.755-145.269 150.443c10.379 18.037 19.083 37.163 25.931 57.141h207.467zM519.573 225.536c-122.048 0-220.992 98.933-220.992 220.992 0 122.048 98.933 220.981 220.992 220.981 122.037 0 220.992-98.933 220.992-220.981 0-122.059-98.955-220.992-220.992-220.992zM596.587 447.989c0-46.61-37.785-84.395-84.395-84.395s-84.395 37.785-84.395 84.395c0 46.61 37.785 84.395 84.395 84.395s84.395-37.785 84.395-84.395z" />
<glyph unicode="&#xe617;" d="M821.077 960h-576c-29.451 0-53.333-23.883-53.333-53.333v-917.333c0-29.461 23.883-53.333 53.333-53.333h576c29.461 0 53.333 23.872 53.333 53.333v917.333c0 29.451-23.883 53.333-53.333 53.333zM617.92 72.853c0-29.461-23.872-53.333-53.333-53.333h-63.861c-29.451 0-53.333 23.872-53.333 53.333v23.84c0 29.461 23.883 53.333 53.333 53.333h63.861c29.461 0 53.333-23.872 53.333-53.333v-23.84zM793.664 292.331c0-29.461-23.872-53.333-53.333-53.333h-403.179c-29.451 0-53.333 23.872-53.333 53.333v537.163c0 29.451 23.883 53.333 53.333 53.333h403.179c29.461 0 53.333-23.883 53.333-53.333v-537.163z" />
<glyph unicode="&#xe618;" d="M810.453-35.051c0 0-200.096-69.632-399.819 182.155 0 0-250.581 322.475-258.208 463.424 0 0-22.997 157.909 71.947 241.493l163.659-219.307c0 0 18.72-258.752 287.765-435.552 0 0 136.075-199.424 138.123-209.067l8.8-12.459-12.267-10.688zM785.376 263.648l141.739-214.816-93.472-61.749-141.728 214.816zM330.016 928l163.072-214.816-93.472-61.739-163.061 214.805z" />
<glyph unicode="&#xe619;" d="M1000.629 826.528c-8.544 5.813-18.848 9.227-29.963 9.227h-917.333c-11.616 0-22.272-3.808-31.040-10.112l501.163-415.285 477.173 416.171zM20 118.677l327.691 389.877-345.963 286.688c-1.024-4.128-1.728-8.373-1.728-12.821v-622.421c0-16.768 7.893-31.552 20-41.323zM1020.501 141.461c2.155 5.803 3.499 12 3.499 18.539v622.421c0 4.928-0.885 9.611-2.133 14.144l-340.725-297.173 339.36-357.931zM653.568 475.339l-123.477-107.691-5.035-6.069-149.227 123.659-318.208-378.571h913.045c9.44 0 18.176 2.656 25.867 6.955l-342.965 361.717z" />
<glyph unicode="&#xe61a;" d="M525.771 960c-191.755 0-347.221-155.467-347.221-347.232s347.221-676.768 347.221-676.768 347.253 485.003 347.253 676.768c0 191.765-155.467 347.232-347.253 347.232zM526.485 430.603c-110.027 0-199.232 89.205-199.232 199.232 0 110.037 89.205 199.243 199.232 199.243 110.037 0 199.232-89.205 199.232-199.243 0-110.027-89.184-199.232-199.232-199.232z" />
<glyph unicode="&#xe61b;" d="M839.563-25.344l-319.083 160.725-313.301-171.712 54.272 353.131-260.128 244.907 352.629 57.515 152.533 323.072 163.637-317.589 354.421-45.227-251.477-253.792z" />
<glyph unicode="&#xe61c;" d="M450.667 960h122.667v-1024h-122.667v1024zM0 509.333h1024v-122.667h-1024v122.667z" />
<glyph unicode="&#xe61d;" d="M1024 448c0-282.773-229.227-512-512-512s-512 229.227-512 512 229.227 512 512 512 512-229.227 512-512zM508.032 197.856c-82.827-83.797-143.467-62.56-208.928-24.096-80.875 57.781-50.069 146.379-30.816 170.411 19.243 24.107 366.763 377.419 381.28 391.851 14.389 14.443 53.877 40.491 100.107 3.872 62.56-47.2 11.573-120.363 11.573-120.363s-317.739-345.675-322.549-349.44c-4.811-3.872-28.619-30.645-53.899-6.763-25.323 23.872-5.781 52.992-5.781 52.992l274.325 282.016-26.923 25.024c0 0-252.245-257.067-272.437-279.221-20.224-22.144-31.776-61.6-7.701-97.205 44.277-53.867 108.768-14.464 120.32-2.901 11.584 11.52 307.104 329.301 324.501 349.493 72.139 110.709-13.195 173.621-13.195 173.621-46.219 41.088-124.789 30.037-145.653 6.603-30.752-31.264-389.643-393.909-398.613-408.395-76.64-120.555 19.275-201.525 19.275-201.525 137.333-130.976 261.355-15.392 261.355-15.392l299.563 301.675-29.472 29.525c-0.011-0.011-207.989-214.389-276.331-281.781z" />
<glyph unicode="&#xe61e;" d="M512 954.667c-138.048 0-263.179-55.008-354.912-144.192l106.624-68.789c67.179 56.341 153.749 90.315 248.288 90.315 213.557 0 386.667-173.109 386.667-386.667s-173.109-386.667-386.667-386.667-386.667 173.109-386.667 386.667c0 24.619 2.4 48.661 6.795 72h-124.299c-3.339-23.531-5.163-47.552-5.163-72 0-281.301 228.032-509.333 509.333-509.333s509.333 228.032 509.333 509.333c0 281.301-228.032 509.333-509.333 509.333zM42.667 896.864l344.576-228.939-327.349-63.851z" />
<glyph unicode="&#xe61f;" d="M511.968 960c-282.784 0-512.032-229.248-512.032-512.032 0-282.795 229.248-512.032 512.032-512.032s512.032 229.237 512.032 512.032c0 282.784-229.248 512.032-512.032 512.032zM574.219 193.813h-124.437v316.448h124.448v-316.448zM574.219 636.48h-124.437v126.219h124.448v-126.219z" />
<glyph unicode="&#xe620;" d="M1024 448c0-282.773-229.227-512-512-512s-512 229.227-512 512c0 282.763 229.227 512 512 512s512-229.237 512-512zM416 640v42.667h192v-42.667h42.667v85.333h-277.333v-85.333h42.667zM789.333 533.333c0 29.451-23.872 53.333-53.333 53.333h-448c-29.451 0-53.333-23.883-53.333-53.333v-256c0-29.461 23.883-53.333 53.333-53.333h42.667v-42.667h42.667v42.667h277.333v-42.667h42.667v42.667h42.667c29.461 0 53.333 23.872 53.333 53.333v256z" />
<glyph unicode="&#xe621;" d="M832 256v512h-160v128h-480v-896h384v-64h-448v1024h638.667l129.333-125.355v-578.645h-64zM256 704h64v-64h-64v64zM384 704h384v-64h-384v64zM256 576h64v-64h-64v64zM384 576h384v-64h-384v64zM256 448h64v-64h-64v64zM384 448h384v-64h-384v64zM256 320h64v-64h-64v64zM384 320h256v-64h-256v64zM256 192h64v-64h-64v64zM384 192h128v-64h-128v64zM704 256h64v-320h-64v320zM576 128h320v-64h-320v64z" />
<glyph unicode="&#xe622;" d="M206.667 509.333h346.667v210.667l264-269.333-272-274.667-1.333 197.333-337.333 2.667z" />
<glyph unicode="&#xe623;" d="M413.333 653.333h346.667v210.667l264-269.333-272-274.667-1.333 197.333-337.333 2.667zM610.667 386.667h-346.667v210.667l-264-269.333 272-274.667 1.333 197.333 337.333 2.667z" />
<glyph unicode="&#xe624;" d="M654.421 294.912c-59.040 29.451-36.32 6.912-108.8 37.024-72.491 30.059-89.653 39.904-89.653 39.904l-0.651 68.949c0 0 27.136 20.64 35.627 85.856 16.928-4.917 22.688 19.904 23.595 35.744 1.024 15.317 10.048 63.051-10.699 58.784 4.235 31.861 7.552 60.693 6.027 75.947-5.163 53.547-42.123 109.472-135.456 113.547-79.317-4.085-130.816-60.032-136-113.579-1.493-15.253 1.557-44.043 5.781-75.979-20.715 4.32-11.808-43.509-10.891-58.795 0.992-15.851 6.592-40.747 23.605-35.829 8.427-65.216 35.595-86.005 35.595-86.005l-0.672-69.323c0 0-17.173-10.453-89.675-40.565-72.501-30.123-49.76-6.24-108.8-35.669-93.355-46.517-93.355-174.432-93.355-174.432h0.032c0 0-0.011-0.032-0.011-0.064 0-19.371 15.691-35.093 35.040-35.093h677.611c19.339 0 35.061 15.723 35.061 35.093 0 0.032 0 0.064 0 0.096h0.011c0 0 0 127.893-93.323 174.389zM1024 117.355c0 0 0 116.341-84.875 158.656-53.76 26.795-33.056 6.293-99.029 33.685-65.941 27.36-81.557 36.288-81.557 36.288l-0.576 62.741c0 0 24.683 18.784 32.373 78.101 15.445-4.459 20.661 18.101 21.504 32.523 0.907 13.931 9.109 57.355-9.749 53.493 3.861 29.003 6.901 55.221 5.525 69.099-4.683 48.704-38.357 99.573-123.221 103.296-72.171-3.723-119.019-54.624-123.755-103.328-1.344-13.877 1.429-40.075 5.291-69.131-18.88 3.925-10.741-39.573-9.931-53.504 0.928-14.432 6.005-37.067 21.493-32.597 7.691-59.328 32.373-78.261 32.373-78.261l-0.629-62.805c22.443-5.333 25.451-1.013 70.677-23.573 105.835-52.736 105.835-197.771 105.835-197.771h-0.053c0-0.032 0-0.064 0-0.096 0-19.029-13.301-34.869-31.104-38.816h237.525c17.6 0 31.883 14.315 31.883 31.925 0 0.043 0 0.043 0 0.075v0 0z" />
<glyph unicode="&#xe625;" d="M729.269 960h-611.936v-1024h786.709v829.781l-174.773 194.219zM846.731-0.064h-672.085v896.117h512.107v-178.411l159.979 1.835v-719.541zM685.333 360c-98.667-1.333-165.333 154.667-165.333 154.667 86.667 233.333-46.667 234.667-46.667 234.667-98.667-17.333-46.667-214.667-46.667-214.667 32-137.333-62.667-228-62.667-228-157.333-61.333-174.667-128-174.667-128-20-90.667 45.333-122.667 45.333-122.667 65.333-17.333 166.667 182.667 166.667 182.667l26.667 28c156 82.667 249.333-38.667 249.333-38.667 97.333-62.667 150.667 4 150.667 4 49.333 108-142.667 128-142.667 128zM224.245 109.664c0 0-44.363 18.411 100.779 126.411 0 0 12.075-6.325 15.861-16.864s-90.421-116.021-116.64-109.547zM469.333 701.333c0 0 43.797 19.744 23.147-160 0 0-13.813-6.005-23.147 0s-22.667 145.333 0 160zM442.037 323.061c35.477 15.691 50.443 112.939 50.443 112.939v5.333c5.813-41.333 79.52-88 79.52-88-73.472 0-123.659-26.741-129.963-30.272zM649.163 301.621c0 0 0.789 16.565 10.816 20.469s139.072-47.904 141.451-74.805c0 0.011-3.029-47.936-152.267 54.336z" />
<glyph unicode="&#xe626;" d="M383.776 410.283l-60.341-60.331-316.779 316.779 286.613 286.613 309.237-309.237-60.341-60.341-248.896 248.896-165.931-165.931zM474.283 319.776l-60.331-60.341 316.779-316.779 286.613 286.613-309.237 309.237-60.341-60.341 248.907-248.896-165.941-165.941zM293.24 606.407l60.331 60.348 384.724-384.616-60.331-60.348-384.724 384.616z" />
<glyph unicode="&#xe627;" d="M0 490.667v192h1024v-192h-416v138.667h-192v-138.667zM42.667 448v-512h938.667v512h-373.333v-458.667h-192v458.667zM362.667 682.667c0 0-256 26.667-216 226.667 5.333 32 152 130.667 256-101.333 61.333-93.333 53.333-80 93.333-77.333 77.333 5.333 122.667 226.667 333.333 229.333s184-192-90.667-242.667c-109.333-21.333-141.333-34.667-194.667-34.667-24 0-24 0-181.333 0zM346.667 712c197.333-29.333 90.923-10.987 48 42.667-30.4 37.995-74.667 149.333-149.333 165.333s-69.333-53.333-69.333-53.333c9.163-53.184 70.816-139.819 170.667-154.667zM624.907 804.512c-158.24-140.512-112.907-100.512 34.357-69.728 59.573 12.448 206.133 25.931 251.797 102.88 45.675 76.949-39.648 97.557-39.648 97.557-67.253 10.144-158.048-52.16-246.507-130.709z" />
<glyph unicode="&#xe628;" d="M458.667 960v-138.667h-277.333v-746.667h277.333v-138.667h-416v1024zM318.219 448.875l279.115 278.24v-183.115h373.333v-181.333h-373.333v-192z" />
<glyph unicode="&#xe629;" d="M458.667 960v-138.667h-277.333v-746.667h277.333v-138.667h-416v1024zM972.448 448.875l-279.115 278.24v-183.115h-373.333v-181.333h373.333v-192z" />
<glyph unicode="&#xe62a;" d="M0 960h1024v-1024h-1024v1024z" />
<glyph unicode="&#xe62b;" d="M1024 448c0-282.773-229.227-512-512-512s-512 229.227-512 512 229.227 512 512 512 512-229.227 512-512zM746.667 682.667h-42.667v-53.333h-149.333v53.333h-85.333v-53.333h-149.333v53.333h-42.667v-469.333h469.333v469.333zM704 256h-384v330.667h384v-330.667zM416 725.333h-42.667v-42.667h42.667v42.667zM416 544h-42.667v-42.667h42.667v42.667zM512 544h-42.667v-42.667h42.667v42.667zM650.667 544h-96v-42.667h96v42.667zM416 448h-42.667v-42.667h42.667v42.667zM512 448h-42.667v-42.667h42.667v42.667zM650.667 448h-96v-42.667h96v42.667zM416 352h-42.667v-42.667h42.667v42.667zM512 352h-42.667v-42.667h42.667v42.667zM650.667 352h-96v-42.667h96v42.667zM650.667 725.333h-42.667v-42.667h42.667v42.667z" />
<glyph unicode="&#xe62c;" d="M654.432 272.448v0c0-0.021 0-0.043 0-0.064 0-11.659-9.493-21.109-21.184-21.109h-409.387c-11.723 0-21.184 9.451-21.184 21.109 0 0.021 0.011 0.043 0.011 0.043h-0.021c0 0 0 76.907 56.395 104.853 35.68 17.696 21.931 3.339 65.739 21.461 43.776 18.091 54.155 24.373 54.155 24.373l0.437 41.685c0 0-16.416 12.512-21.536 51.733-10.272-2.955-13.643 12-14.251 21.525-0.544 9.195-5.931 37.952 6.581 35.371-2.56 19.189-4.395 36.491-3.477 45.664 3.115 32.213 34.251 65.824 82.165 68.288 56.373-2.453 78.709-36.064 81.824-68.256 0.939-9.173-1.077-26.496-3.659-45.653 12.544 2.549 7.083-26.133 6.464-35.36-0.544-9.515-4.021-24.427-14.251-21.483-5.109-39.2-21.515-51.637-21.515-51.637l0.384-41.44c0 0 10.379-5.92 54.155-24 43.797-18.112 30.080-4.565 65.76-22.272 56.395-27.936 56.395-104.832 56.395-104.832zM821.333 270.528v0c0-0.021 0-0.021 0-0.043 0-10.581-8.64-19.189-19.264-19.189h-143.52c10.784 2.379 18.805 11.883 18.805 23.328 0 0.011 0 0.032 0 0.053h0.032c0 0 0 87.221-63.936 118.912-27.339 13.579-29.141 10.965-42.688 14.187l0.363 37.749c0 0-14.901 11.403-19.552 47.061-9.355-2.699-12.427 10.901-12.992 19.595-0.48 8.373-5.408 34.539 5.995 32.181-2.325 17.472-4 33.216-3.2 41.557 2.88 29.301 31.189 59.904 74.795 62.123 51.264-2.219 71.595-32.8 74.432-62.101 0.832-8.331-1.003-24.096-3.328-41.536 11.381 2.325 6.432-23.797 5.877-32.171-0.512-8.672-3.669-22.229-12.981-19.573-4.661-35.669-19.573-46.944-19.573-46.944l0.341-37.707c0 0 9.461-5.387 49.291-21.824 39.861-16.469 27.349-4.16 59.829-20.267 51.275-25.44 51.275-95.392 51.275-95.392v0zM512 960c-282.763 0-512-229.237-512-512 0-282.773 229.237-512 512-512 282.773 0 512 229.227 512 512 0 282.763-229.227 512-512 512z" />
<glyph unicode="&#xe62d;" d="M248 960h129.333v-190.667h-129.333v190.667zM673.333 960h128v-190.667h-128v190.667zM832 814.219l4-85.333h-206.667l4 85.333h-220.885l0.885-85.333h-207.104l0.437 85.333h-153.333v-878.219h935.115v878.219h-156.448zM946.667-18.667h-850.667v658.667h850.667v-658.667zM182.667 553.333h104v-105.333h-104v105.333zM374.667 553.333h104v-105.333h-104v105.333zM566.667 553.333h104v-105.333h-104v105.333zM758.667 553.333h104v-105.333h-104v105.333zM758.667 361.333h104v-105.333h-104v105.333zM566.667 361.333h104v-105.333h-104v105.333zM374.667 361.333h104v-105.333h-104v105.333zM182.667 361.333h104v-105.333h-104v105.333zM182.667 169.333h104v-105.333h-104v105.333zM374.667 169.333h104v-105.333h-104v105.333zM566.667 169.333h104v-105.333h-104v105.333zM769.333 169.333h104v-105.333h-104v105.333z" />
<glyph unicode="&#xe62e;" d="M511.115 943.232c-282.283 0-511.115-220.715-511.115-492.96s228.832-492.96 511.115-492.96c282.283 0 511.115 220.704 511.115 492.96s-228.832 492.96-511.115 492.96zM511.115 49.909c-229.269 0-415.115 179.243-415.115 400.363s185.856 400.373 415.115 400.373c229.269 0 415.115-179.264 415.115-400.373s-185.856-400.363-415.115-400.363zM537.056 434.709c0-17.195-13.952-31.136-31.136-31.136v0c-17.184 0-31.125 13.941-31.125 31.136v230.901c0 17.195 13.941 31.136 31.125 31.136v0c17.184 0 31.136-13.941 31.136-31.136v-230.901zM525.099 404.864c-17.195 0-31.136 13.941-31.136 31.136v0c0 17.195 13.952 31.136 31.136 31.136h127.125c17.184 0 31.136-13.941 31.136-31.136v0c0-17.195-13.952-31.136-31.136-31.136h-127.125z" />
<glyph unicode="&#xe62f;" d="M624.789 366.827c0-76.271-137.476-138.101-307.061-138.101s-307.061 61.83-307.061 138.101c0 76.271 137.476 138.101 307.061 138.101s307.061-61.83 307.061-138.101zM1020.149 813.931c0-76.245-137.472-138.112-307.072-138.112-169.568 0-307.051 61.867-307.051 138.112 0 76.256 137.483 138.080 307.051 138.080 169.6 0 307.072-61.813 307.072-138.080zM11.072 294.773l-0.405-113.216c0 0 315.648-240.149 614.123 20.587v92.64c0-0.011-318.251-219.563-613.717-0.011zM10.667 136.949v-92.651c0 0 260.757-236.747 614.123 0v109.813c0 0-240.181-229.909-614.123-17.163zM406.016 739.424v-92.629c0 0 299.648-260.736 614.123 0v92.629c0.011 0-311.061-212.587-614.123 0zM406.016 591.893v-60.981c0 0 252.747-41.941 252.747-134.56 0 0 228.725-40.224 361.376 108.544v86.997c0.011 0-276.768-198.976-614.123 0zM658.773 363.328v-114.507c0 0 280.181-34.325 361.376 99.488v98.965c0 0-90.336-92.949-361.376-83.947zM658.773 187.723v-107.040c0 0 361.376-6.837 361.376 130.389v83.712c0-0.011-90.336-89.259-361.376-107.061z" />
<glyph unicode="&#xe630;" d="M7.776 489.333l159.275-175.52c0 0 54.944-45.813 124.949-8.48 58.667 25.333 234.667 100 234.667 100s10.667 2.080 8-24.96l-33.333-339.040c0 0 47.403-8.757 88 44 65.899 129.131 109.739 294.656 141.333 405.333 51.381 29.909 219.787 129.867 282.667 168 25.333 21.333-49.333 116-223.211 51.221-128.789-65.888-435.872-214.677-502.123-247.221-76-37.333-249.333 32-249.333 32l-30.891-5.333zM533.333 636c-298.667 113.333-311.339 34.667-311.339 34.667l167.669-104 143.669 64v5.333z" />
<glyph unicode="&#xe631;" d="M301.504 758.517l366.603 169.483 106.144-169.483zM774.251 860.309l4.416-60.309h161.781c0 0-19.915 79.147-166.197 60.309zM581.557 456.139c0 0-50.848-0.875-46.379-98.101 0 0-7.147-94.56 59.776-95.445h432.608v193.547h-446.005zM664.981 279.531c-36.213 0-65.557 29.355-65.557 65.557 0 36.213 29.365 65.557 65.557 65.557 36.213 0 65.557-29.355 65.557-65.557-0.021-36.203-29.376-65.557-65.557-65.557zM594.059 492.715l366.603 5.344v214.080l-905.344-5.355-1.792 108.811 289.003 4.459 87.413 40.139h-375.52c0 0-49.941 5.355-54.411-59.765v-754.613c0 0-2.677-85.621 85.632-88.309h786.72c0 0 82.944-24.085 88.299 104.363v157.909l-382.667 5.355c0 0-72.235 13.376-64.224 144.501 0.011-0.032-8.011 123.083 80.288 123.083zM149.856 71.253h-42.816v-43.264h-42.816v86.528h85.632v-43.264zM149.856 178.293h-42.816v-43.275h-42.816v86.528h85.632v-43.253zM149.856 285.323h-42.816v-43.264h-42.816v86.517h85.632v-43.253zM149.856 392.363h-42.816v-43.264h-42.816v86.528h85.632v-43.264zM149.856 499.403h-42.816v-43.264h-42.816v86.528h85.632v-43.264zM149.856 606.443h-42.816v-43.264h-42.816v86.528h85.632v-43.264z" />
<glyph unicode="&#xe632;" d="M309.952 830.667c0-64.801-52.532-117.333-117.333-117.333s-117.333 52.532-117.333 117.333c0 64.801 52.532 117.333 117.333 117.333s117.333-52.532 117.333-117.333zM937.504 841.333c0-64.801-52.532-117.333-117.333-117.333s-117.333 52.532-117.333 117.333c0 64.801 52.532 117.333 117.333 117.333s117.333-52.532 117.333-117.333zM14.219 494.219c0 0 48.896 184.448 141.344 189.781h87.115c0 0 53.333 7.104 106.667-76.448l94.219-133.333 99.552-42.667 10.667-44.448-23.104-30.219-99.552 21.333-81.781 69.781-23.115 29.781-49.333-531.531h-124.885l-30.219 599.115-46.507-60.448 39.392-94.229 5.333-75.488-30.219-31.179-38.24 31.179-26.667 79.467-10.667 77.803v21.749zM925.344 664.469c-96 94.219-222.507-8.885-222.507-8.885l-107.275-189.803-22.219-50.176 42.667-28.437 97.771 103.115 24.896-552.939h124.437l30.229 407.136 25.771-23.723h35.552l69.333 173.461-98.656 170.251zM893.344 383.605v165.333l69.333-69.333-69.333-96z" />
<glyph unicode="&#xe633;" d="M186.112 667.989c-91.125-38.944-157.664-161.696-157.664-307.104 0-141.483 62.987-261.525 150.336-303.776l7.328 610.88zM845.013 667.989c91.115-38.944 157.653-161.696 157.653-307.104 0-141.483-62.987-261.525-150.336-303.776l-7.317 610.88zM218.667 667.989v-610.88h586.667v610.88h-586.667zM340.587 328.373l-63.936 106.219 210.187 126.528 63.936-106.208-210.187-126.539zM664.64 165.333c-47.968 0-86.859 38.891-86.859 86.859s38.891 86.859 86.859 86.859 86.859-38.891 86.859-86.859-38.891-86.859-86.859-86.859zM328.885 704v71.115h328v-71.115h39.115v108.448h-403.552v-108.448z" />
<glyph unicode="&#xe634;" d="M655.211 477.152c0-78.757-63.845-142.603-142.603-142.603s-142.603 63.845-142.603 142.603c0 78.757 63.845 142.603 142.603 142.603s142.603-63.845 142.603-142.603zM768.907 234.336c0-68.107-55.221-123.339-123.339-123.339h-265.931c-68.117 0-123.339 55.232-123.339 123.339v0c0 68.107 55.221 123.339 123.339 123.339 0 0 35.957-61.664 65.525-61.664s109.12 0 138.731 0c29.589 0 61.685 61.664 61.685 61.664 68.107-0.011 123.328-55.232 123.328-123.339v0zM911.509 646.731c0-78.757-63.845-142.603-142.603-142.603s-142.603 63.845-142.603 142.603c0 78.757 63.845 142.603 142.603 142.603s142.603-63.845 142.603-142.603zM786.251 280.587h115.637c68.107 0 123.328 55.232 123.328 123.339v0c0 68.107-55.221 123.339-123.328 123.339 0 0-32.107-61.675-61.696-61.675-29.6 0-109.163 0-138.72 0 0-0.011 82.229-133.611 84.779-185.003zM398.912 632.608c0-78.757-63.845-142.603-142.603-142.603s-142.603 63.845-142.603 142.603c0 78.757 63.845 142.603 142.603 142.603s142.603-63.845 142.603-142.603zM327.573 451.467c-29.6 0-109.152 0-138.72 0s-65.525 61.664-65.525 61.664c-68.107 0-123.328-55.232-123.328-123.339v0c0-68.128 55.221-123.339 123.339-123.339h80.939l123.296 185.013z" />
<glyph unicode="&#xe635;" d="M0 384v-314.667h221.333v314.667h-221.333zM170.219 300.437c-12.277 0-22.229 9.963-22.229 22.229s9.952 22.229 22.229 22.229 22.229-9.963 22.229-22.229-9.952-22.229-22.229-22.229zM250.667 368.885v-224.896c0 0 345.781-70.219 402.667-70.219 0 0 20.437-9.781 48.885 8 0 0 285.344 167.104 309.344 198.219 0 0 38.229 36.448-16 80 0 0-36.437 19.563-93.333-11.552l-191.115-97.781c0 0 42.677-100.448-62.219-95.115 0 0-111.115 10.677-216 75.563l8.885 9.771c0 0 119.115-53.333 156.448-61.333 0 0 87.989-14.219 100.437 28.448 0 0 24.011 54.229-28.437 81.781 0 0-147.563 72.885-199.115 88.885 0 0-73.781 32.885-124.448 30.219 0 0-47.115-6.208-96-39.989zM662.901 696.309c0 0-197.813-206.677-65.355-325.387 0 0 245.301-103.029 299.573 39.776 0 0 72.832 81.397-82.848 285.611 0.011 0-95.669-28.555-151.371 0zM672.907 720.587c0 0 81.408-21.419 121.387 0 0 0 42.848 27.136 45.696 115.68 0 0-2.859 35.701-31.413 34.272 0 0-42.848-29.995-52.128-41.408 0 0-10.709-13.568-37.131 4.277 0 0-38.549 23.563-49.984 25.707 0 0-37.12 11.424-42.848-10.709 0 0 9.813-91.552 46.421-127.819z" />
<glyph unicode="&#xe636;" d="M640 277.333v-74.667h-608v757.333h608v-74.667h-533.333v-608zM942.667 792.384c0-53.019-42.981-96-96-96s-96 42.981-96 96c0 53.019 42.981 96 96 96s96-42.981 96-96zM746.667 352v-384h74.667v266.667h42.667v-266.667h74.667v384h64v298.667h-96l-44.448-106.667-34.667-0.448-41.771 117.781h-337.781v-85.333h245.333l18.667-224zM331.339 202.667l-178.005-266.667h60l158.229 230.667 159.104-230.667h66.667l-188 266.667z" />
<glyph unicode="&#xe637;" d="M584.309 698.848c0-126.816-97.485-229.621-217.739-229.621s-217.739 102.805-217.739 229.621c0 126.816 97.485 229.621 217.739 229.621s217.739-102.805 217.739-229.621zM45.899 81.248c0 0-47.509 308.789 221.707 340.469 0 0 130.923 23.275 235.808-48.341 7.403-5.067 16.235-12.224 16.235-12.224l-35.211-34.464 147.616-156.181-98.72-89.259h-487.435zM989.045 316.053l-75.104 80.651-159.936-148.949-151.68 157.248-79.349-76.512 150.368-155.84-158.485-147.637 75.104-80.672 159.915 148.96 151.744-157.301 79.307 76.448-150.432 155.957z" />
<glyph unicode="&#xe638;" d="M969.835 960h-915.648c-29.92 0-54.187-23.883-54.187-53.333v-659.552c0-29.461 24.267-53.333 54.187-53.333h75.605l3.541-257.781 252.448 257.771h584.053c29.92 0 54.165 23.872 54.165 53.333v659.563c0 29.451-24.245 53.333-54.165 53.333zM321.781 513.771h-128v124.448h128v-124.448zM577.771 513.771h-127.989v124.448h127.989v-124.448zM833.792 513.771h-128v124.448h128v-124.448z" />
<glyph unicode="&#xe639;" d="M1024 448c0-282.773-229.227-512-512-512s-512 229.227-512 512 229.227 512 512 512 512-229.227 512-512zM160 384h298.667v-288h128v288h277.333v128h-277.333v288h-128v-288h-298.667v-128z" />
<glyph unicode="&#xe63a;" d="M338.667 431.328l92.011 313.92 63.648-339.424 45.973 129.493 47.744-103.979h386.197c14.869 47.093 47.296 132.213 46.261 277.152-17.835 134.176-126.976 251.627-270.539 251.627-112.16 0-207.669-62.773-244.096-150.688-36.448 87.861-131.787 150.677-243.936 150.677-143.541 0-260.32-147.669-259.915-286.933-0.224-120.288 61.867-194.752 76.747-241.845h259.904zM543.819 358.208l-63.712-153.856-64.107 285.728-29.589-122.72-289.579-1.739c61.387-129.184 414.432-429.621 414.432-429.621s334.965 288 431.349 422.208h-398.795z" />
<glyph unicode="&#xe63b;" d="M166.656 210.784l1.205 1.781-1.205 1.195zM948.885 588.896l-284.437 284.437c-81.248 81.248-226.432 67.797-324.256-30.016l-224.384-224.384c-97.835-97.835-111.285-243.029-30.037-324.288l80.885-80.885v167.456l-33.333 1.675v125.099l33.333-1.013v162.133l158.667-223.669-157.461-232.875 202.347-202.347c81.248-81.248 226.443-67.776 324.245 30.027l224.395 224.395c97.824 97.813 111.275 243.008 30.037 324.256zM96.672 352.661h-32v186.005h32v-186.005zM424.32 895.445h186.005v-32h-186.005v32zM293.493 795.947h162.133l-1.013 33.333h125.099l1.675-33.333h159.776l-224-158.667-223.669 158.667zM618.005 416.661h22.667c1.248 0 2.443 0.224 3.669 0.352-11.829-50.752-52-90.539-102.987-101.771v14.069c0 16.203-13.131 29.333-29.333 29.333s-29.333-13.131-29.333-29.333v-14.069c-50.869 11.189-90.944 50.837-102.891 101.419h15.563c16.203 0 29.333 13.12 29.333 29.333s-13.131 29.333-29.333 29.333h-16.587c10.709 52.501 51.701 93.92 103.915 105.408v-18.069c0-16.203 13.131-29.333 29.333-29.333s29.333 13.131 29.333 29.333v18.069c52.363-11.52 93.419-53.152 103.989-105.877-1.547 0.245-3.061 0.469-4.672 0.469h-22.667c-16.203 0-29.333-13.131-29.333-29.333s13.131-29.333 29.333-29.333zM610.325-0.565h-186.005v32h186.005v-32zM581.205 87.616l-1.675-33.333h-125.088l1.013 33.333h-162.133l223.669 158.667 224-158.667h-159.787zM901.323 382.891l-33.333-1.675v-159.776l-158.667 224 158.667 223.669v-162.133l33.333 1.013v-125.099zM928.875 354.997v185.995h32v-185.995h-32z" />
<glyph unicode="&#xe63c;" d="M712.544 107.883c-54.368-102.261-161.984-171.883-285.877-171.883-178.688 0-323.552 144.864-323.552 323.552 0 128.939 75.424 240.267 184.565 292.256l27.339-70.059c-84.309-40.171-142.571-126.165-142.571-225.771 0-138.016 111.904-249.941 249.931-249.941 95.701 0 178.827 53.792 220.832 132.768l69.333-30.923zM512 315.787c0-39.712-40.587-71.883-90.667-71.883v0c-50.080 0-90.667 32.192-90.667 71.883v314.539c0 39.701 40.587 71.893 90.667 71.893v0c50.069 0 90.667-32.192 90.667-71.893v-314.539zM764.448 532.533c0-26.955-21.856-48.8-48.8-48.8h-209.952c-26.955 0-48.8 21.845-48.8 48.8v0c0 26.955 21.845 48.8 48.8 48.8h209.952c26.944 0 48.8-21.845 48.8-48.8v0zM743.115 303.104c0-41.728-29.845-75.552-66.667-75.552l-246.219-4.981c-36.821 0-99.552 36.32-99.552 78.048v0c0 41.728 99.179 78.027 136 78.027h209.781c36.811 0.021 66.656-33.803 66.656-75.541v0zM684.448 378.667c0 0 81.781-24 104-87.115l48-134.229-82.667-70.219-61.824 142.56-7.509 149.003zM961.781 95.104c0-33.877-24.939-40-64-40h-81.781c-39.061 0-62.219-1.877-62.219 32l19.552 40c0 33.877 24.053 30.219 63.115 30.219l54.603-0.885c39.061 0 70.731-27.456 70.731-61.333v0zM526.229 851.552c0-57.932-46.964-104.896-104.896-104.896s-104.896 46.964-104.896 104.896c0 57.932 46.964 104.896 104.896 104.896s104.896-46.964 104.896-104.896z" />
<glyph unicode="&#xe63d;" d="M739.563 725.717c-62.293 0 49.771-146.165-42.667-117.717-1.6 0.907-39.669 37.387-57.301 35.189-27.616-3.435-59.595-2.528-59.595-2.528s-59.211-0.661-62.944-2.443c-76.16 16-38.379 103.115-38.379 103.115-65.077 3.595-144.448 69.995-144.448 69.995-61.045 33.429-107.765 22.283-133.163-24.075-21.248-38.795-4.384-90.368 37.429-125.771-44.885-29.248-85.195-85.547-108.704-138.155-49.685-1.824-85.899-41.003-85.899-104.715 0-57.216 32.139-104.821 74.667-115.285 26.197-88.757 87.659-159.125 165.472-189.504-1.088-6.421-1.739-13.003-1.739-19.755v-39.776c0-60.544 45.579-109.611 101.792-109.611 46.411 0 85.483 33.472 97.739 79.189 18.773-8.501 39.541-13.323 61.493-13.323h41.771c21.184 0 41.333 4.469 59.605 12.405 9.685-49.643 50.581-86.955 99.552-86.955 56.224 0 101.813 49.088 101.813 109.621l16.16 33.248c92.405 54.923 128 164.245 128 304.224 0 191.723-102.187 342.624-250.656 342.624zM317.088 450.784c-30.752 0-55.691 24.939-55.691 55.691s24.939 55.68 55.691 55.68c30.752 0 55.68-24.928 55.68-55.68s-24.939-55.691-55.68-55.691zM740.011 809.333c0-69.962-56.715-126.677-126.677-126.677s-126.677 56.715-126.677 126.677c0 69.962 56.715 126.677 126.677 126.677s126.677-56.715 126.677-126.677z" />
<glyph unicode="&#xe63e;" d="M3.211 320.821c30.357-180.331 272.832-320.821 567.467-320.821 184.768 0 349.035 55.275 453.323 140.96v54.987l-44.384-2.997c-92.416-74.955-241.76-123.616-410.283-123.616-252.96 0-462.731 109.675-501.557 253.227l-64.565-1.739zM949.333 892.448h-120.896c-113.771-68.448-170.453-487.765-170.453-487.765l-362.88 75.317-75.851-327.659c204.096-176.512 498.805-69.845 498.805-69.845-46.347 598.059 231.275 809.952 231.275 809.952zM608 69.333l-285.333 40 64 245.333 232-32.107-10.667-253.227zM583.672 464.374l-285.248 68.496 11.831 49.268 285.248-68.496-11.831-49.268z" />
<glyph unicode="&#xe63f;" d="M512 956.437c-280.789 0-508.437-227.637-508.437-508.437s227.648-508.437 508.437-508.437c280.8 0 508.437 227.637 508.437 508.437s-227.637 508.437-508.437 508.437zM479.339 773.333c93.888 0 170.005-76.107 170.005-170.005s-76.117-170.005-170.005-170.005c-93.899 0.011-170.005 76.117-170.005 170.005s76.107 170.005 170.005 170.005zM556 170.667h-229.333c0 0-118.667 17.333-141.333 76 0 0-2.667 152 184 153.333 0 0 17.333-38.667 46.667-44h96c0 0 37.333 12 45.333 44 0 0 145.333 18.667 186.667-48 0 0-174.667-78.667-188-181.333zM836.672 168.661h-92.672v-92.672h-45.333v92.672h-92.672v45.333h92.672v92.672h45.333v-92.672h92.672v-45.333z" />
<glyph unicode="&#xe640;" d="M512 960c-282.773 0-512-229.227-512-512s229.227-512 512-512 512 229.227 512 512-229.227 512-512 512zM660 677.333c55.968 0 101.333-45.365 101.333-101.333s-45.365-101.333-101.333-101.333-101.333 45.365-101.333 101.333 45.365 101.333 101.333 101.333zM373.333 682.667c76.587 0 138.667-62.080 138.667-138.667s-62.080-138.667-138.667-138.667-138.667 62.080-138.667 138.667 62.080 138.667 138.667 138.667zM462.667 172h-230.667c-84 1.333-90.667 90.667-90.667 90.667 4 126.667 129.333 137.333 129.333 137.333 36-1.333 58.667-44 58.667-44h89.333c45.333 52 100 44 100 44 86.667-21.333 86.667-130.667 86.667-130.667-28-98.667-142.667-97.333-142.667-97.333zM834.667 316c-25.333-78.667-182.667-52-182.667-52 14.667 78.667-46.667 136.448-46.667 136.448h78.667c37.333 0.448 58.667 47.552 58.667 47.552 96 8 92-132 92-132z" />
<glyph unicode="&#xe641;" d="M512 960c-282.773 0-512-229.227-512-512s229.227-512 512-512 512 229.227 512 512-229.227 512-512 512zM375.776 758.667c0 23.563 19.104 42.667 42.667 42.667h44.736c-1.099 3.605-1.856 7.36-1.856 11.339 0 21.728 17.611 39.339 39.339 39.339h86.667c21.707 0 39.339-17.611 39.339-39.339 0-3.968-0.747-7.723-1.856-11.339h32.288c23.563 0 42.667-19.104 42.667-42.667v-32c0-23.563-19.104-42.667-42.667-42.667h-238.656c-23.563 0-42.667 19.104-42.667 42.667v32zM368 589.333h331.776v-48h-331.776v48zM368 494.549h331.776v-48h-331.776v48zM368 402.549h331.776v-48h-331.776v48zM368 309.333h331.776v-48h-331.776v48zM835.563 261.333v-139.563h-606.229v598.229c0 29.451 23.883 53.333 53.333 53.333h44l-0.331-53.856h-2.656c-24.619 0-44.576-19.957-44.576-44.576v-384.235h0.224v-120.896h506.112v91.563h0.341v413.568c0 24.619-16.107 44.395-40.715 44.395l-0.395 54.037h37.557c29.461 0 53.333-23.883 53.333-53.333v-458.667z" />
<glyph unicode="&#xe642;" d="M511.968 960.032c-282.773 0-512-229.237-512-512 0-282.773 229.227-512 512-512s512 229.227 512 512c0 282.763-229.227 512-512 512zM170.645 598.709l-32 34.005 48 47.339 22.667-23.339 236.683-234.016 20-68.661-69.333 25.323-226.016 219.349zM511.968 448.053v46.005h185.376v-46.005h-185.376zM697.344 400.053v-46.005h-185.376v46.005h185.376zM418.005 542.027v46.005h279.349v-46.005h-279.349zM792.021 544.032l-1.333-328.011c0 0-5.333-92.011-94.677-93.344h-445.355c0 0-46.667-2.667-64 46.667v90.677h418.699c0 0 17.333-46.667 74.667-45.333 0 0 61.333-4 64 57.333l2.667 361.355 40.011 1.333 1.333 46.667-414.699-2.667 0.672-46.005-50.005 2.005v93.333h508.032c0 0 92-46.667 98.667-184.011h-138.677z" />
<glyph unicode="&#xe643;" d="M512 960c-282.773 0-512-229.227-512-512s229.227-512 512-512 512 229.227 512 512-229.227 512-512 512zM505.909 77.12h-272.224v752.864h402.101l67.52-140.885v-180.501l-46.976 0.747v178.283l-5.792 11.744h-89.579v83.648h-280.309v-657.461l226.741-0.736-1.483-47.701zM609.387 640.661v-43.968h-278.848v43.968h278.848zM330.539 313.419v43.957h136.491v-43.957h-136.491zM421.547 264.917v-43.957h-91.008v43.957h91.008zM330.539 407.328v43.979h176.107v-43.979h-176.107zM330.539 502.773v43.979h278.848v-43.979h-278.848zM712.405 77.856c-103.947 0-188.224 84.277-188.224 188.224 0 103.936 84.256 188.224 188.224 188.224 17.003 0 40.661-2.272 57.653-6.507l35.413 54.987 47.339-140.565h-137.856l27.339 42.443c-6.571 0.832-16.939 1.749-29.909 1.749-77.525 0-140.341-62.837-140.341-140.331s62.848-140.331 140.341-140.331 140.331 62.837 140.331 140.331c0 14.325-2.144 28.149-6.123 41.163l48.192 5.461c3.808-14.912 5.835-30.539 5.835-46.624 0.011-103.947-84.267-188.224-188.213-188.224z" />
<glyph unicode="&#xe644;" d="M184.864 702.912h378.656v-59.712h-378.656v59.712zM184.864 575.371h378.656v-59.712h-378.656v59.712zM184.864 445.749h239.147v-59.712h-239.147v59.712zM184.864 318.208h185.344v-59.712h-185.344v59.712zM184.864 192.661h123.552v-59.723h-123.552v59.723zM563.52 896.224l63.776-129.547v-242.123l63.776-1.003v245.12l-91.68 191.328h-546.059v-1022.379h369.685l2.005 64.768-307.904 1.003v892.832h446.4zM603.371 908.181h-105.611v-125.547h159.424v26.901zM829.824 515.659l64.256-190.912h-187.189zM885.664 250.123c5.419-17.675 8.331-36.459 8.331-55.904 0-105.248-85.333-190.571-190.581-190.571s-190.571 85.323-190.571 190.571 85.323 190.581 190.571 190.581c36.587 0 58.432-5.472 48.949-3.595l36.32 57.941c-23.232 6.944-59.787 10.667-85.269 10.667-141.152 0-255.584-114.443-255.584-255.595s114.432-255.595 255.584-255.595c141.163 0 255.605 114.443 255.605 255.595 0 21.845-2.752 43.061-7.904 63.328l-65.451-7.424z" />
<glyph unicode="&#xe645;" d="M384 608l-192-213.333v-288h192zM618.667 490.667l-192 138.667v-522.667h192zM853.333 693.333l-192-192v-394.667h192zM896 704l-202.667 202.667h202.667zM53.333 917.333h64v-917.333h-64v917.333zM53.333 42.667h917.333v-64h-917.333v64zM159.115 591.115l244.437 244.437 221.344-155.552 150.592 148.843 40.768-39.189-186.027-186.987-220.448 159.115-210.667-210.667z" />
<glyph unicode="&#xe646;" d="M352 896h448v-127.808l128 0.192v-768.384h-576v896zM288-64h704v832.949l-192 191.051h-512zM416 704h64v-64h-64v64zM533.333 704h330.667v-64h-330.667v64zM416 576h64v-64h-64v64zM533.333 576h330.667v-64h-330.667v64zM416 448h64v-64h-64v64zM533.333 448h330.667v-64h-330.667v64zM416 320h64v-64h-64v64zM533.333 320h330.667v-64h-330.667v64zM416 192h64v-64h-64v64zM533.333 192h330.667v-64h-330.667v64zM32 896h128v-128h-128v128zM96 0l-64 128h128zM32 704h128v-512h-128v512z" />
</font>
</defs>
</svg>
